Важное объявление!
У Нас Все раздачи мультитрекерные, при нуле пиров в релизах, можете смело вставать на закачку!
 
Автор Сообщение

HUNTER

Стаж:
4 года 4 месяца
Сообщений:
56733

Репутация: 101

[+] [-]
Вне форума [Профиль] [ЛС]

[Lynda.com] Foundations of Programming: Refactoring Code [2013, RUS]
Год выпуска: 2013
Сайт производителя: Lynda.com
Автор: Simon Allardice
Продолжительность: 1:44:56
Тип раздаваемого материала: Видеоурок
Язык: Русский (закадровый перевод)
Автор перевода: военная тайна
Субтитры: Английские (в zip-архиве)
Описание:
Основы программирования: рефакторинг кода.
Рефакторинг – это процесс улучшения имеющегося программного кода. Рефакторинг не только делает код более понятным и легким для чтения, но и значительно облегчает реализацию новых возможностей, создание более крупных приложений, а также поиск и устранение ошибок.
В этом курсе Саймон Аллардайс представляет формализованный дисциплинированный подход к рефакторингу, который поможет вам научиться искать и устранять проблемы в коде с использованием так называемых "запахов" кода – признаков того, что с кодом что-то не так.
Некоторые темы курса:
- Что такое рефакторинг кода?
- Распознавание частых "запахов" кода
- Упрощение вызовов методов
- Упрощение чтения условных операций
- Применение рефакторинга на уровне методов, классов и приложения.
Файлы примеров: не предусмотрены
Формат видео: MP4
Видео: AVC (H264), 1280х720, 15 fps, 30 fps
Аудио: AAC, 48000 Hz, mono, 96 Кбит/с

Mediainfo

GeneralComplete name : 0_01. Welcome.mp4Format : MPEG-4Format profile : Base MediaCodec ID : isomFile size : 8.76 MiBDuration : 1mn 19sOverall bit rate : 926 KbpsWriting application : Lavf55.19.104
VideoID : 1Format : AVCFormat/Info : Advanced Video CodecFormat profile : High@L3.1Format settings, CABAC : YesFormat settings, ReFrames : 4 framesCodec ID : avc1Codec ID/Info : Advanced Video CodingDuration : 1mn 19sBit rate : 822 KbpsWidth : 1 280 pixelsHeight : 720 pixelsDisplay aspect ratio : 16:9Frame rate mode : ConstantFrame rate : 30.000 fpsColor space : YUVChroma subsampling : 4:2:0Bit depth : 8 bitsScan type : ProgressiveBits/(Pixel*Frame) : 0.030Stream size : 7.77 MiB (89%)Writing library : x264 core 140 r2377 1ca7bb9Language : English
AudioID : 2Format : AACFormat/Info : Advanced Audio CodecFormat profile : LCCodec ID : 40Duration : 1mn 19sDuration_LastFrame : 43msBit rate mode : ConstantBit rate : 96.0 KbpsChannel(s) : 2 channelsChannel(s)_Original : 1 channelChannel positions : Front: CSampling rate : 48.0 KHzCompression mode : LossyStream size : 930 KiB (10%)Language : Russian

Скриншоты

Время раздачи: до первых 5 скачавших

_________________
Показать сообщения:    

Текущее время: Сегодня 19:29

Часовой пояс: GMT



Вы не можете начинать темы
Вы не можете отвечать на сообщения
Вы не можете редактировать свои сообщения
Вы не можете удалять свои сообщения
Вы не можете голосовать в опросах
Вы не можете прикреплять файлы к сообщениям
Вы не можете скачивать файлы