[Lynda.com] Email Marketing Basics [2012, RUS] :: Ивановский Торрент трекер
Важное объявление!
У Нас Все раздачи мультитрекерные, при нуле пиров в релизах, можете смело вставать на закачку!
Статистика раздачи
Размер:     |    Зарегистрирован:     |    Скачан:     |   
Нет
 
     
 
 
Автор Сообщение

HUNTER

Стаж:
4 года 11 месяцев
Сообщений:
66066

Репутация: 101

[+] [-]
Вне форума [Профиль] [ЛС]

[Lynda.com] Email Marketing Basics [2012, RUS]
Год выпуска: 2011 (Updated Nov 12, 2012)
Сайт производителя: Lynda.com
Автор: John Arnold
Продолжительность: 0:57:11
Тип раздаваемого материала: Видеоурок
Язык: Русский (закадровый перевод)
Описание:
Основы Email-маркетинга.
Автор курса покажет вам, как получить максимальную отдачу от маркетинговых кампаний. Этот курс предлагает стратегии для:
- создания качественного списка подписчиков
- поддержания бренда и репутации компании посредством Email рассылки
- создания качественного Email контента в сообщениях электронной почты
- соответствия Email фирменному стилю.
Учебный курс также охватывает разработку маркетинговых сообщений – от формы и дизайна до содержания и анализа эффективности кампаний через электронную почту.
Файлы примеров: не предусмотрены
Формат видео: MP4
Видео: AVC (H264), 960х540, 30 fps
Аудио: AAC, 48000 Hz, mono, 96 Кбит/с

Mediainfo

GeneralComplete name : 0_1. Добро пожаловать.mp4Format : MPEG-4Format profile : Base MediaCodec ID : isomFile size : 7.30 MiBDuration : 1mn 2sOverall bit rate : 973 KbpsWriting application : Lavf55.19.104
VideoID : 1Format : AVCFormat/Info : Advanced Video CodecFormat profile : Main@L3.1Format settings, CABAC : YesFormat settings, ReFrames : 3 framesCodec ID : avc1Codec ID/Info : Advanced Video CodingDuration : 1mn 2sBit rate : 869 KbpsWidth : 960 pixelsHeight : 540 pixelsDisplay aspect ratio : 16:9Frame rate mode : ConstantFrame rate : 30.000 fpsStandard : PALColor space : YUVChroma subsampling : 4:2:0Bit depth : 8 bitsScan type : ProgressiveBits/(Pixel*Frame) : 0.056Stream size : 6.52 MiB (89%)Language : English
AudioID : 2Format : AACFormat/Info : Advanced Audio CodecFormat profile : LCCodec ID : 40Duration : 1mn 2sDuration_LastFrame : 32msBit rate mode : ConstantBit rate : 96.0 KbpsChannel(s) : 2 channelsChannel(s)_Original : 1 channelChannel positions : Front: CSampling rate : 48.0 KHzCompression mode : LossyStream size : 738 KiB (10%)Language : Russian

Скриншоты

Время раздачи: до первых 5 скачавших

_________________
Показать сообщения:    

Текущее время: Сегодня 22:44

Часовой пояс: GMT



Вы не можете начинать темы
Вы не можете отвечать на сообщения
Вы не можете редактировать свои сообщения
Вы не можете удалять свои сообщения
Вы не можете голосовать в опросах
Вы не можете прикреплять файлы к сообщениям
Вы не можете скачивать файлы