[Lynda.com] Design Aesthetics for Web Design [2013, RUS] :: Ивановский Торрент трекер
Важное объявление!
У Нас Все раздачи мультитрекерные, при нуле пиров в релизах, можете смело вставать на закачку!
Статистика раздачи
Размер:     |    Зарегистрирован:     |    Скачан:     |   
Нет
 
     
 
 
Автор Сообщение

HUNTER

Стаж:
4 года 11 месяцев
Сообщений:
66052

Репутация: 101

[+] [-]
Вне форума [Профиль] [ЛС]

[Lynda.com] Design Aesthetics for Web Design [2013, RUS]
Год выпуска: 2013
Сайт производителя: Lynda.com
Автор: Sue Jenkins
Продолжительность: 2:05:28
Тип раздаваемого материала: Видеоурок
Язык: Русский (перевод Aquarelka)
Субтитры: Русские (в zip-архиве)
Описание:
Основное понимание принципов хорошего проекта (таких например, как контраст, единство, баланс) является основой для того, чтобы создавать красивые веб-сайты.
В курсе "Эстетика дизайна для веб-дизайна" Сью Дженкинс простыми словами объясняет эстетику проекта и показывает, как применять эти принципы и методы для улучшения сайта и привлечения посетителей.
Вы также узнаете о том, как с помощью Photoshop скорректировать смежные цвета для добавления контраста, как создать глубину с текстурированием, как изобразить движение и использовать повторение фигур, узоров, рамок – чтобы сделать ваш проект единым целым.
В заключительной главе рассматриваются специальные вопросы, на которые дизайнеры должны обратить внимание в своих веб-макетах – адаптивный дизайн для мобильных устройств, доступность и оригинальность.

Дополнительная информация

Некоторые темы курса:
- Понимание эстетики
- Выбор гармоничных цветов
- Структурирование макета
- Использование пространства при организации дизайна
- Использование шрифтов
- Выравнивание объектов для достижения баланса
- Добавление движения с прокруткой и анимацией
- Достижение пропорций путём масштабирования объектов и текста
- Создание CSS для различных устройств
Примечание.
Курс построен таким образом, что можно легко обойтись без файлов примеров (они вообще не нужны).
Но если они вдруг понадобятся, то загляните в раздачу на английском языке и скачайте архив Ex_Files_Des_Aesth_Web.zip (размер 100 932 532 байт).
Также можно отметить, что перевод курса сделан очень удачно.
Файлы примеров: отсутствуют
Формат видео: MP4
Видео: AVC (H264), 1280х720, 15 fps
Аудио: MP3, 44100 Hz, 192 Кбит/с

Mediainfo

GeneralComplete name : 1_01. Понимание эстетики.mp4Format : MPEG-4Format profile : Base MediaCodec ID : isomFile size : 9.99 MiBDuration : 4mn 41sOverall bit rate : 298 KbpsWriting application : Lavf55.19.104
VideoID : 1Format : AVCFormat/Info : Advanced Video CodecFormat profile : Main@L3.1Format settings, CABAC : YesFormat settings, ReFrames : 3 framesCodec ID : avc1Codec ID/Info : Advanced Video CodingDuration : 4mn 41sBit rate : 102 KbpsWidth : 1 280 pixelsHeight : 720 pixelsDisplay aspect ratio : 16:9Frame rate mode : ConstantFrame rate : 15.000 fpsColor space : YUVChroma subsampling : 4:2:0Bit depth : 8 bitsScan type : ProgressiveBits/(Pixel*Frame) : 0.007Stream size : 3.42 MiB (34%)Language : English
AudioID : 2Format : MPEG AudioFormat version : Version 1Format profile : Layer 3Mode : Joint stereoMode extension : MS StereoCodec ID : 6BDuration : 4mn 41sBit rate mode : ConstantBit rate : 192 KbpsChannel(s) : 2 channelsSampling rate : 44.1 KHzCompression mode : LossyStream size : 6.43 MiB (64%)Language : Russian

Скриншоты


Время раздачи: до первых 5 скачавших

_________________
Показать сообщения:    

Текущее время: Сегодня 12:22

Часовой пояс: GMT



Вы не можете начинать темы
Вы не можете отвечать на сообщения
Вы не можете редактировать свои сообщения
Вы не можете удалять свои сообщения
Вы не можете голосовать в опросах
Вы не можете прикреплять файлы к сообщениям
Вы не можете скачивать файлы