Важное объявление!
У Нас Все раздачи мультитрекерные, при нуле пиров в релизах, можете смело вставать на закачку!
 
Автор Сообщение

HUNTER

Стаж:
4 года 10 месяцев
Сообщений:
65522

Репутация: 101

[+] [-]
Вне форума [Профиль] [ЛС]

[Lynda.com] CINEMA 4D R17 Essential Training [2016, RUS]
Год выпуска: 2016
Сайт производителя: Lynda.com
Автор: Craig Whitaker
Продолжительность: 6:24:14
Тип раздаваемого материала: Видеоурок
Язык: Русский (перевод AlexJP)
Субтитры: Английские (внутри zip-архива)
Описание:
Основное обучение CINEMA 4D R17
От полигонального и сплайн-моделирования и до освещения, рендеринга, наложения теней – эта серия уроков по CINEMA 4D (C4D) позволит вам быстро улучшить свои навыки работы в программе, и вы сможете с легкостью создавать в ней великолепные 3D-модели и анимацию.
CINEMA 4D R17 – жизненно необходимый инструмент для любого моушн-дизайнера, разработчика визуальных эффектов или аниматора. Делаете только свои первые шаги в профессию или переходите на C4D с другой программы – этот курс вам подойдет.
В начале обучения автор курса расскажет о новых возможностях версии R17, которая появилась в августе 2015 года, и затем кратко опишет процесс работы в программе.
Далее он подробно разберет основные функции CINEMA 4D: сплайн-моделирование, полигональное моделирование, деформаторы, материалы и тени, освещение, инструменты MoGraph, анимацию и рендеринг – каждой теме курса посвящена отдельная глава.
И в заключении расскажет о том, как соединять 3D-модели, видео и различные эффекты в After Effects при помощи AEC или CINEWARE. Так что, к концу обучения вы будете свободно ориентироваться в интерфейсе и базовых функциях программы.
Некоторые темы курса:
- Интерфейс C4D
- Новые возможности версии R17
- Как использовать Take System для управления версиями и композитингом ?
- Моделирование с помощью сплайнов
- Построение 3D-моделей с помощью полигонов
- Изгиб, кручение и искривление моделей с помощью деформаторов
- Детализация моделей с помощью материалов и теней
- Работа с 3D-освещением
- Использование инструментов MoGraph
- Анимация в CINEMA 4D
- Рендеринг моделей
- Композитинг моделей C4D в After Effects.
Файлы примеров: присутствуют
Формат видео: MP4
Видео: AVC (H264), 1280х720, 15 fps
Аудио: AAC, 44100 Hz, mono, 128 Кбит/с

Mediainfo

GeneralComplete name : 00_03. Using the Exercise Files.mp4Format : MPEG-4Format profile : Base MediaCodec ID : isomFile size : 1.76 MiBDuration : 26s 723msOverall bit rate mode : VariableOverall bit rate : 554 KbpsWriting application : Lavf55.19.104
VideoID : 1Format : AVCFormat/Info : Advanced Video CodecFormat profile : Main@L3.1Format settings, CABAC : YesFormat settings, ReFrames : 5 framesCodec ID : avc1Codec ID/Info : Advanced Video CodingDuration : 26s 667msBit rate mode : VariableBit rate : 422 KbpsMaximum bit rate : 1 000 KbpsWidth : 1 280 pixelsHeight : 720 pixelsDisplay aspect ratio : 16:9Frame rate mode : ConstantFrame rate : 15.000 fpsColor space : YUVChroma subsampling : 4:2:0Bit depth : 8 bitsScan type : ProgressiveBits/(Pixel*Frame) : 0.031Stream size : 1.34 MiB (76%)Writing library : x264 core 129Language : English
AudioID : 2Format : AACFormat/Info : Advanced Audio CodecFormat profile : LCCodec ID : 40Duration : 26s 723msDuration_LastFrame : 43msBit rate mode : ConstantBit rate : 128 KbpsChannel(s) : 2 channelsChannel(s)_Original : 1 channelChannel positions : Front: CSampling rate : 44.1 KHzCompression mode : LossyStream size : 417 KiB (23%)Language : Russian

Скриншоты


Время раздачи: до первых 5 скачавших

_________________
Показать сообщения:    

Текущее время: Сегодня 01:38

Часовой пояс: GMT



Вы не можете начинать темы
Вы не можете отвечать на сообщения
Вы не можете редактировать свои сообщения
Вы не можете удалять свои сообщения
Вы не можете голосовать в опросах
Вы не можете прикреплять файлы к сообщениям
Вы не можете скачивать файлы