Ивановский Торрент трекер
Яндекс.Погода
DL-List and Torrent activity
None
 
     
 
style="text-align: center"
 

[Quote]
HUNTER

Ловля плотвы- Страна: Украина
Год выпуска: 1995
Жанр: документальный, рыбалка
Продолжительность: 00:26:57
Перевод: Не требуется
Субтитры: Отсутствуют-Режиссер: Д. Шкляр
В ролях: Д.Шкляр-Описание: Цикл фильмов-познавательных передач, которые выражают точки зрения авторов на способы и методы ловли различных рыб, и воспринимаются, порой, довольно неоднозначно и спорно, с точки зрения других рыболовов .
Спонсор и вдохновитель - фирма "Дикси".
В этом фильме Вы порыбачите вместе с автором весной на Днепре на спиннинг со сталькой (на красного червя). Объект ловли - весенняя плотва.-Качество: VHSRip
Формат: AVI
Видео кодек: DivX
Аудио кодек: MP3
Видео: 372x272 (1.37:1), 25 fps, DivX Codec 6.2.2 ~781 kbps avg, 0.31 bit/pixel
Аудио: 44.100 kHz, MPEG Layer 3, 1 ch, ~63.70 kbps avg

MediaInfo

General
Complete name : C:\!VиDе0з@пи(и\»«(((°» РыБ@LI{@\New\Ловля плотвы (Д. Шкляр) [1995 г., документальный, рыбалка, VHSRip].avi
Format : AVI
Format/Info : Audio Video Interleave
File size : 165 MiB
Duration : 26mn 57s
Overall bit rate : 855 Kbps
Writing library : VirtualDub build 23486/release
Video
ID : 0
Format : MPEG-4 Visual
Format settings, BVOP : 1
Format settings, QPel : No
Format settings, GMC : No warppoints
Format settings, Matrix : Default (H.263)
Muxing mode : Packed bitstream
Codec ID : DX50
Codec ID/Hint : DivX 5
Duration : 26mn 57s
Bit rate : 782 Kbps
Width : 372 pixels
Height : 272 pixels
Display aspect ratio : 4:3
Frame rate : 25.000 fps
Color space : YUV
Chroma subsampling : 4:2:0
Bit depth : 8 bits
Scan type : Progressive
Compression mode : Lossy
Bits/(Pixel*Frame) : 0.309
Stream size : 151 MiB (91%)
Writing library : DivX 6.2.2 (UTC 2006-04-26)
Audio
ID : 1
Format : MPEG Audio
Format version : Version 1
Format profile : Layer 3
Codec ID : 55
Codec ID/Hint : MP3
Duration : 26mn 57s
Bit rate mode : Constant
Bit rate : 64.0 Kbps
Channel(s) : 1 channel
Sampling rate : 44.1 KHz
Compression mode : Lossy
Delay relative to video : 4ms
Stream size : 12.3 MiB (7%)
Alignment : Split accross interleaves
Interleave, duration : 40 ms (1.00 video frame)
Interleave, preload duration : 500 ms

Скриншоты





Display posts:    

Current time is: 16-Oct 07:19

All times are UTC ± 0


You cannot post new topics in this forum
You cannot reply to topics in this forum
You cannot edit your posts in this forum
You cannot delete your posts in this forum
You cannot vote in polls in this forum
You cannot attach files in this forum
You cannot download files in this forum

!ATTENTION!
The site does not give electronic versions of products, and is engaged only in a collecting and cataloguing of the references sent and published at a forum by our readers. If you are the legal owner of any submitted material and do not wish that the reference to it was in our catalogue, contact us and we shall immediately remove her. Files for an exchange on tracker are given by users of a site, and the administration does not bear the responsibility for their maintenance. The request to not fill in the files protected by copyrights, and also files of the illegal maintenance!