Важное объявление!
У Нас Все раздачи мультитрекерные, при нуле пиров в релизах, можете смело вставать на закачку!
 
Автор Сообщение

HUNTER

Стаж:
4 года 4 месяца
Сообщений:
56755

Репутация: 101

[+] [-]
Вне форума [Профиль] [ЛС]

Losing Traction / В занос-Вид спорта: Автоспорт, дрифт
Дата/Год выпуска: 2015
Язык комментариев: Русский, Английский
Продолжительность: ~00:23:00 [серия]
Описание: ‘Losing Traction’ follows professional driver Matt Field as he navigates life on the Formula Drift circuit. Like most drivers in Formula D, Matt knows how to drift; his car slides sideways through courses at 100mph. Matt is also maneuvering through life as a team owner, a shop owner, and a college student. Follow Matt Field as he attempts to maintain balance in his hectic life, and pursues his dream of becoming champion of Formula Drift.
Релиз: CasStudio

Episode 1


Качество: UHDTV 4k 2160p
Формат видео: MKV
Видео: HEVC | Main 10@L5.1@Main | 3840x2160p | 4:2:0 | 10bit | 50.000 fps | ~16.2 Mbps
Аудио 1: MP2 | 48 KHz | 2.0 (Front: L R) | ~192 Kbps [RUS]
Аудио 2: MP2 | 48 KHz | 2.0 (Front: L R) | ~192 Kbps [ENG]
Media Info
Код:
Общее
Уникальный идентификатор                 : 214573368081684658834594483746881884865 (0xA16D53D6198E31638E4DBF5C8CAB52C1)
Полное имя                               : Part1.mkv
Формат                                   : Matroska
Версия формата                           : Version 4 / Version 2
Размер файла                             : 1,35 Гбайт
Продолжительность                        : 11 м.
Общий поток                              : 16,4 Мбит/сек
Дата кодирования                         : UTC 2015-12-16 10:23:04
Программа кодирования                    : mkvmerge v8.6.1 ('Flying') 64bit
Библиотека кодирования                   : libebml v1.3.3 + libmatroska v1.4.4
DURATION                                 : 00:11:45.288000000
NUMBER_OF_FRAMES                         : 29387
NUMBER_OF_BYTES                          : 16926912
_STATISTICS_WRITING_APP                  : mkvmerge v8.6.1 ('Flying') 64bit
_STATISTICS_WRITING_DATE_UTC             : 2015-12-16 10:23:04
_STATISTICS_TAGS                         : BPS DURATION NUMBER_OF_FRAMES NUMBER_OF_BYTES
Видео
Идентификатор                            : 1
Формат                                   : HEVC
Формат/Информация                        : High Efficiency Video Coding
Профиль формата                          : Main 10@L5.1@Main
Идентификатор кодека                     : V_MPEGH/ISO/HEVC
Продолжительность                        : 11 м.
Ширина                                   : 3840 пикселей
Высота                                   : 2160 пикселей
Соотношение сторон                       : 16:9
Режим частоты кадров                     : Постоянный
Частота кадров                           : 50,000 кадров/сек
Цветовое пространство                    : YUV
Субдискретизация насыщенности            : 4:2:0
Битовая глубина                          : 10 бит
Язык                                     : English
Default                                  : Да
Forced                                   : Нет
Аудио #1
Идентификатор                            : 2
Формат                                   : MPEG Audio
Идентификатор кодека                     : A_MPEG/L2
Идентификатор кодека/Подсказка           : MP2
Продолжительность                        : 11 м.
Каналы                                   : 2 канала
Частота                                  : 48,0 КГц
Метод сжатия                             : С потерями
Язык                                     : Russian
Default                                  : Нет
Forced                                   : Нет
Аудио #2
Идентификатор                            : 3
Формат                                   : MPEG Audio
Версия формата                           : Version 1
Профиль формата                          : Layer 2
Идентификатор кодека                     : A_MPEG/L2
Идентификатор кодека/Подсказка           : MP2
Продолжительность                        : 11 м.
Вид битрейта                             : Постоянный
Битрейт                                  : 192 Кбит/сек
Каналы                                   : 2 канала
Частота                                  : 48,0 КГц
Метод сжатия                             : С потерями
Размер потока                            : 16,1 Мбайт (1%)
Язык                                     : English
Default                                  : Нет
Forced                                   : Нет
Код:
Общее
Уникальный идентификатор                 : 201866069168991120369237229097562410673 (0x97DDFDA0EDCDEDE283150BB1DBBC0EB1)
Полное имя                               : Part2.mkv
Формат                                   : Matroska
Версия формата                           : Version 4 / Version 2
Размер файла                             : 1,31 Гбайт
Продолжительность                        : 11 м.
Общий поток                              : 16,8 Мбит/сек
Дата кодирования                         : UTC 2015-12-16 10:21:51
Программа кодирования                    : mkvmerge v8.6.1 ('Flying') 64bit
Библиотека кодирования                   : libebml v1.3.3 + libmatroska v1.4.4
DURATION                                 : 00:11:06.552000000
NUMBER_OF_FRAMES                         : 27773
NUMBER_OF_BYTES                          : 15997248
_STATISTICS_WRITING_APP                  : mkvmerge v8.6.1 ('Flying') 64bit
_STATISTICS_WRITING_DATE_UTC             : 2015-12-16 10:21:51
_STATISTICS_TAGS                         : BPS DURATION NUMBER_OF_FRAMES NUMBER_OF_BYTES
Видео
Идентификатор                            : 1
Формат                                   : HEVC
Формат/Информация                        : High Efficiency Video Coding
Профиль формата                          : Main 10@L5.1@Main
Идентификатор кодека                     : V_MPEGH/ISO/HEVC
Продолжительность                        : 11 м.
Ширина                                   : 3840 пикселей
Высота                                   : 2160 пикселей
Соотношение сторон                       : 16:9
Режим частоты кадров                     : Постоянный
Частота кадров                           : 50,000 кадров/сек
Цветовое пространство                    : YUV
Субдискретизация насыщенности            : 4:2:0
Битовая глубина                          : 10 бит
Язык                                     : English
Default                                  : Да
Forced                                   : Нет
Аудио #1
Идентификатор                            : 2
Формат                                   : MPEG Audio
Идентификатор кодека                     : A_MPEG/L2
Идентификатор кодека/Подсказка           : MP2
Продолжительность                        : 11 м.
Каналы                                   : 2 канала
Частота                                  : 48,0 КГц
Метод сжатия                             : С потерями
Язык                                     : Russian
Default                                  : Нет
Forced                                   : Нет
Аудио #2
Идентификатор                            : 3
Формат                                   : MPEG Audio
Версия формата                           : Version 1
Профиль формата                          : Layer 2
Идентификатор кодека                     : A_MPEG/L2
Идентификатор кодека/Подсказка           : MP2
Продолжительность                        : 11 м.
Вид битрейта                             : Постоянный
Битрейт                                  : 192 Кбит/сек
Каналы                                   : 2 канала
Частота                                  : 48,0 КГц
Метод сжатия                             : С потерями
Размер потока                            : 15,3 Мбайт (1%)
Язык                                     : English
Default                                  : Нет
Forced                                   : Нет

Скриншоты

Episode 3


Качество: UHDTV 4k 2160p
Формат видео: MKV
Видео: HEVC | Main 10@L5.1@Main | 3840x2160p | 4:2:0 | 10bit | 50.000 fps | ~16.5 Mbps
Аудио 1: MP2 | 48 KHz | 2.0 (Front: L R) | ~192 Kbps [RUS]
Аудио 2: MP2 | 48 KHz | 2.0 (Front: L R) | ~192 Kbps [ENG]
Media Info
Код:
Общее
Уникальный идентификатор                 : 188975259823842335457718573728748913691 (0x8E2B4FA876D576BA8CC2F7DA0DE5C41B)
Полное имя                               : H:\InsideMoto\Losing Traction\Losing.Traction.Episode3.InsightUHD.2160p.H265.Russian.English-CasStudio\Part1.mkv
Формат                                   : Matroska
Версия формата                           : Version 4 / Version 2
Размер файла                             : 1,37 Гбайт
Продолжительность                        : 11 м.
Общий поток                              : 17,2 Мбит/сек
Дата кодирования                         : UTC 2015-12-16 11:08:14
Программа кодирования                    : mkvmerge v8.6.1 ('Flying') 64bit
Библиотека кодирования                   : libebml v1.3.3 + libmatroska v1.4.4
DURATION                                 : 00:11:21.768000000
NUMBER_OF_FRAMES                         : 28407
NUMBER_OF_BYTES                          : 16362432
_STATISTICS_WRITING_APP                  : mkvmerge v8.6.1 ('Flying') 64bit
_STATISTICS_WRITING_DATE_UTC             : 2015-12-16 11:08:14
_STATISTICS_TAGS                         : BPS DURATION NUMBER_OF_FRAMES NUMBER_OF_BYTES
Видео
Идентификатор                            : 1
Формат                                   : HEVC
Формат/Информация                        : High Efficiency Video Coding
Профиль формата                          : Main 10@L5.1@Main
Идентификатор кодека                     : V_MPEGH/ISO/HEVC
Продолжительность                        : 11 м.
Ширина                                   : 3840 пикселей
Высота                                   : 2160 пикселей
Соотношение сторон                       : 16:9
Режим частоты кадров                     : Постоянный
Частота кадров                           : 50,056 кадров/сек
Частота кадров в оригинале               : 50,000 кадров/сек
Цветовое пространство                    : YUV
Субдискретизация насыщенности            : 4:2:0
Битовая глубина                          : 10 бит
Язык                                     : English
Default                                  : Да
Forced                                   : Нет
Аудио #1
Идентификатор                            : 2
Формат                                   : MPEG Audio
Идентификатор кодека                     : A_MPEG/L2
Идентификатор кодека/Подсказка           : MP2
Продолжительность                        : 11 м.
Каналы                                   : 2 канала
Частота                                  : 48,0 КГц
Метод сжатия                             : С потерями
Язык                                     : Russian
Default                                  : Нет
Forced                                   : Нет
Аудио #2
Идентификатор                            : 3
Формат                                   : MPEG Audio
Версия формата                           : Version 1
Профиль формата                          : Layer 2
Идентификатор кодека                     : A_MPEG/L2
Идентификатор кодека/Подсказка           : MP2
Продолжительность                        : 11 м.
Вид битрейта                             : Постоянный
Битрейт                                  : 192 Кбит/сек
Каналы                                   : 2 канала
Частота                                  : 48,0 КГц
Метод сжатия                             : С потерями
Размер потока                            : 15,6 Мбайт (1%)
Язык                                     : English
Default                                  : Нет
Forced                                   : Нет
Код:
Общее
Уникальный идентификатор                 : 233054256820110474509248373894025081856 (0xAF549E0002F59C27AAEB1F6DF0EC7400)
Полное имя                               : H:\InsideMoto\Losing Traction\Losing.Traction.Episode3.InsightUHD.2160p.H265.Russian.English-CasStudio\part2.mkv
Формат                                   : Matroska
Версия формата                           : Version 4 / Version 2
Размер файла                             : 1,45 Гбайт
Продолжительность                        : 11 м.
Общий поток                              : 17,7 Мбит/сек
Дата кодирования                         : UTC 2015-12-16 11:08:56
Программа кодирования                    : mkvmerge v8.6.1 ('Flying') 64bit
Библиотека кодирования                   : libebml v1.3.3 + libmatroska v1.4.4
DURATION                                 : 00:11:45.936000000
NUMBER_OF_FRAMES                         : 29414
NUMBER_OF_BYTES                          : 16942464
_STATISTICS_WRITING_APP                  : mkvmerge v8.6.1 ('Flying') 64bit
_STATISTICS_WRITING_DATE_UTC             : 2015-12-16 11:08:56
_STATISTICS_TAGS                         : BPS DURATION NUMBER_OF_FRAMES NUMBER_OF_BYTES
Видео
Идентификатор                            : 1
Формат                                   : HEVC
Формат/Информация                        : High Efficiency Video Coding
Профиль формата                          : Main 10@L5.1@Main
Идентификатор кодека                     : V_MPEGH/ISO/HEVC
Продолжительность                        : 11 м.
Ширина                                   : 3840 пикселей
Высота                                   : 2160 пикселей
Соотношение сторон                       : 16:9
Режим частоты кадров                     : Постоянный
Частота кадров                           : 50,056 кадров/сек
Частота кадров в оригинале               : 50,000 кадров/сек
Цветовое пространство                    : YUV
Субдискретизация насыщенности            : 4:2:0
Битовая глубина                          : 10 бит
Язык                                     : English
Default                                  : Да
Forced                                   : Нет
Аудио #1
Идентификатор                            : 2
Формат                                   : MPEG Audio
Идентификатор кодека                     : A_MPEG/L2
Идентификатор кодека/Подсказка           : MP2
Продолжительность                        : 11 м.
Каналы                                   : 2 канала
Частота                                  : 48,0 КГц
Метод сжатия                             : С потерями
Язык                                     : Russian
Default                                  : Нет
Forced                                   : Нет
Аудио #2
Идентификатор                            : 3
Формат                                   : MPEG Audio
Версия формата                           : Version 1
Профиль формата                          : Layer 2
Идентификатор кодека                     : A_MPEG/L2
Идентификатор кодека/Подсказка           : MP2
Продолжительность                        : 11 м.
Вид битрейта                             : Постоянный
Битрейт                                  : 192 Кбит/сек
Каналы                                   : 2 канала
Частота                                  : 48,0 КГц
Метод сжатия                             : С потерями
Размер потока                            : 16,2 Мбайт (1%)
Язык                                     : English
Default                                  : Нет
Forced                                   : Нет

Скриншоты


_________________
Показать сообщения:    

Текущее время: Сегодня 15:19

Часовой пояс: GMT



Вы не можете начинать темы
Вы не можете отвечать на сообщения
Вы не можете редактировать свои сообщения
Вы не можете удалять свои сообщения
Вы не можете голосовать в опросах
Вы не можете прикреплять файлы к сообщениям
Вы не можете скачивать файлы