Ивановский Торрент трекер
Яндекс.Погода
 

[Цитировать]
HUNTER

Lock, Stock & Riot by Peter McKinnon
Страна: USA
Тематика: Magic
Тип раздаваемого материала: Видеоурок
Продолжительность: 01:37:31
Год выпуска: 2013
Язык: Английский
Перевод: Отсутствует
Описание: Собрание из 6 фокусов + 1 флоришь.
Качество: HDRip
Формат: MP4
Видео кодек: H.264
Аудио кодек: AAC
Видео: mp42 ; 640x360 ; 16:9 ; 1293kbps ; 30fps
Аудио: aac ; 96kbps ; 44.1kHz ; 2ch

Скриншоты

MediaInfo

Общее
Полное имя : E:\ФОКУСЫ ОБУЧЕНИЕ!!!\Иллюзионисты и их семинары!\Ellusionist\Riot dvd.mp4
Формат : MPEG-4
Профиль формата : Base Media / Version 2
Идентификатор кодека : mp42
Размер файла : 298 Мбайт
Продолжительность : 1 ч. 37 м.
Режим общего битрейта : Переменный
Общий поток : 427 Кбит/сек
Дата кодирования : UTC 2013-11-21 23:52:54
Дата пометки : UTC 2013-11-21 23:52:54
gsst : 0
gstd : 5851683
gssd : B4A7DDAC3MH1385840841941775
gshh : r3---sn-4g57kuek.googlevideo.com
Видео
Идентификатор : 1
Формат : AVC
Формат/Информация : Advanced Video Codec
Профиль формата : Baseline@L3.0
Параметр CABAC формата : Нет
Параметр ReFrames формата : 1 кадр
Идентификатор кодека : avc1
Идентификатор кодека/Информация : Advanced Video Coding
Продолжительность : 1 ч. 37 м.
Битрейт : 328 Кбит/сек
Максимальный битрейт : 1293 Кбит/сек
Ширина : 640 пикселей
Высота : 360 пикселей
Соотношение сторон : 16:9
Режим частоты кадров : Постоянный
Частота кадров : 30,000 кадров/сек
Цветовое пространство : YUV
Субдискретизация насыщенности : 4:2:0
Битовая глубина : 8 бит
Тип развёртки : Прогрессивная
Бит/(Пиксели*Кадры) : 0.047
Размер потока : 229 Мбайт (77%)
Дата пометки : UTC 2013-11-21 23:54:20
Аудио
Идентификатор : 2
Формат : AAC
Формат/Информация : Advanced Audio Codec
Профиль формата : LC
Идентификатор кодека : 40
Продолжительность : 1 ч. 37 м.
Вид битрейта : Переменный
Битрейт : 96,0 Кбит/сек
Максимальный битрейт : 104 Кбит/сек
Каналы : 2 канала
Расположение каналов : Front: L R
Частота : 44,1 КГц
Метод сжатия : С потерями
Размер потока : 67,0 Мбайт (22%)
Заголовок : IsoMedia File Produced by Google, 5-11-2011
Дата кодирования : UTC 2013-11-21 23:53:24
Дата пометки : UTC 2013-11-21 23:54:20
Всех С НАСТУПАЮЩИМ НОВЫМ ГОДОМ!!!
Говорим спасибо)
Не забываем оставаться на раздаче!
0 человек читают эту тему: 0 пользователей, 0 скрытых пользователей, 0 гостей

Показать сообщения:    

Текущее время: 23-Авг 09:15

Часовой пояс: UTC - 1


Вы не можете начинать темы
Вы не можете отвечать на сообщения
Вы не можете редактировать свои сообщения
Вы не можете удалять свои сообщения
Вы не можете голосовать в опросах
Вы не можете прикреплять файлы к сообщениям
Вы не можете скачивать файлы

!ВНИМАНИЕ!
Сайт не предоставляет электронные версии произведений, а занимается лишь коллекционированием и каталогизацией ссылок, присылаемых и публикуемых на форуме нашими читателями. Если вы являетесь правообладателем какого-либо представленного материала и не желаете, чтобы ссылка на него находилась в нашем каталоге, свяжитесь с нами, и мы незамедлительно удалим ее. Файлы для обмена на трекере предоставлены пользователями сайта, и администрация не несет ответственности за их содержание. Просьба не заливать файлы, защищенные авторскими правами, а также файлы нелегального содержания!