Ивановский Торрент трекер
Яндекс.Погода
 

[Цитировать]
HUNTER

Linkin Park - Rock In Rio- Дата выпуска: 26.05.2012
Страна: Lisboa, Portugal
Жанр: Alternative/Nu-Metal
Продолжительность: 1:35:42
Описание: концерт Лос-анджелесской группы в рамках фестиваля Rock In Rio 26 мая этого года. На нем впервые была исполнена LIES GREED MISERY и, впервые с 2001 года, концерт открывал трек A Place For My Head.
- 1. Place For My Head (Long Intro; Ext. Outro)
2. Given Up (Ext. Outro w/ Extra Note)
3. Faint (Ext. Outro)
4. With You (2012 Ext. Intro; Ext. Scratch Outro)
5. Runaway
6. From The Inside (Ext. Intro)
7. Somewhere I Belong (2012 Ext. Intro)
8. Numb
9. LIES GREED MISERY (Live Debut)
10. Points Of Authority
11. Waiting For The End Apaches (Intro w/ 'Until It Breaks' rap; Ext. Outro)
12. Breaking The Habit
13. LOATR/SOTD/Iridescent (Ballad Medley)
14. The Catalyst
15. BURN IT DOWN
16. What I've Done
17. Crawling
18. New Divide
19. In The End
20. Bleed It Out (Ext. Intro; Ext. Bridge w/ Beastie Boys 'Sabotage'; Ext. Outro)
21. Papercut (False Start)
22. One Step Closer (Ext. Outro)
- Качество: DVD9
Формат: MPEG-PS
Video Codec: MPEG Video
Audio Codec: AC-3
Video: 720x576 (4:3), 25 fps, 9000 kbps
Audio: 384 kbps, 48 kHz, 2 channels

Screenshots

MI

Общее
Полное имя : E:\Linkin Park - Rock In Rio (26.05.2012)\VTS_02_1.VOB
Формат : MPEG-PS
Размер файла : 1024 Мбайт
Продолжительность : 11 м.
Общий поток : 11,9 Мбит/сек
Библиотека кодирования : encoded by TMPGEnc DVD Author 3 Version. 3.0.5.149
Видео
Идентификатор : 224 (0xE0)
Формат : MPEG Video
Версия формата : Version 2
Профиль формата : Main@Main
Параметр BVOP формата : Да
Параметр матрицы формата : Выборочная
Продолжительность : 11 м.
Вид битрейта : Переменный
Битрейт : 11,3 Мбит/сек
Максимальный битрейт : 9000 Кбит/сек
Ширина : 720 пикселей
Высота : 576 пикселей
Соотношение сторон : 4:3
Частота кадров : 25,000 кадров/сек
Стандарт вещания : PAL
Цветовое пространство : YUV
Субдискретизация насыщенности : 4:2:0
Битовая глубина : 8 бит
Тип развёртки : Чересстрочная
Порядок развёртки : Верхнее поле первое
Метод сжатия : С потерями
Бит/(Пиксели*Кадры) : 1.092
Размер потока : 971 Мбайт (95%)
Библиотека кодирования : TMPGEnc DVD Author 3 Version. 3.0.5.149
Аудио
Идентификатор : 189 (0xBD)-128 (0x80)
Формат : AC-3
Формат/Информация : Audio Coding 3
Расширение режима : CM (complete main)
Режим смешивания : DVD-Video
Продолжительность : 11 м.
Вид битрейта : Постоянный
Битрейт : 384 Кбит/сек
Каналы : 2 канала
Расположение каналов : Front: L R
Частота : 48,0 КГц
Битовая глубина : 16 бит
Метод сжатия : С потерями
Размер потока : 32,9 Мбайт (3%)
- Group of music принимает заявки в стол заказов


Показать сообщения:    

Текущее время: 16-Дек 20:48

Часовой пояс: UTC ± 0


Вы не можете начинать темы
Вы не можете отвечать на сообщения
Вы не можете редактировать свои сообщения
Вы не можете удалять свои сообщения
Вы не можете голосовать в опросах
Вы не можете прикреплять файлы к сообщениям
Вы не можете скачивать файлы

!ВНИМАНИЕ!
Сайт не предоставляет электронные версии произведений, а занимается лишь коллекционированием и каталогизацией ссылок, присылаемых и публикуемых на форуме нашими читателями. Если вы являетесь правообладателем какого-либо представленного материала и не желаете, чтобы ссылка на него находилась в нашем каталоге, свяжитесь с нами, и мы незамедлительно удалим ее. Файлы для обмена на трекере предоставлены пользователями сайта, и администрация не несет ответственности за их содержание. Просьба не заливать файлы, защищенные авторскими правами, а также файлы нелегального содержания!