Важное объявление!
У Нас Все раздачи мультитрекерные, при нуле пиров в релизах, можете смело вставать на закачку!
 
Автор Сообщение

HUNTER

Стаж:
4 года 4 месяца
Сообщений:
56722

Репутация: 101

[+] [-]
Вне форума [Профиль] [ЛС]

Linkin Park - Live from iTunes Festival-Год выпуска: 2011
Страна: London, UK
Жанр: Alternative/Nu-Metal
Продолжительность: ~1:33:00
Описание: Концерт группы на фестивале iTunes в Лондоне. Интро к Iridescent Wisdom, Justice, And Love вырезано в связи с нарушением копирайта, в прямом эфире интро присутствовало.
-Тracklist:
01. The Requiem
02. Papercut
03. Lying From You
04. Given Up
05. What I've Done
06. Empty Spaces
07. When They Come For Me
08. No More Sorrow
09. Jornada Del Muerto
10. Waiting For The End
11. Burning In The Skies
12. Numb
13. The Radiance w/ Keyboard + Catalyst Vox
14. Breaking The Habit
15. Fallout
16. The Catalyst
17. Crawling
18. Faint
19. One Step Closer
--------------------
20. Rolling In The Deep (Adele Cover; Piano Version)
21. Wisdom, Justice, And Love (copyright)
22. Iridescent
23. New Divide
24. In The End
25. Bleed It Out
-Качество: HDTVRip
Формат: MPEG-4
Видео кодек: AVC
Аудио кодек: AAC
Видео: 1280x720 (16:9), 6251 kbps, 29,970 fps
Аудио: 160 kbps, 48.0 Khz, 2 channels

Screenshots

MediaInfo

Общее
Полное имя: E:\LPIT.mp4
Формат: MPEG-4
Профиль формата: Base Media
Идентификатор кодека: isom
Размер файла: 4,21 Гбайт
Продолжительность: 1 ч. 33 м.
Общий поток: 6419 Кбит/сек
Видео
Идентификатор: 1
Формат: AVC
Формат/Информация: Advanced Video Codec
Профиль формата: [url=mailto:Baseline@L3.1]Baseline@L3.1[/url]
Параметр CABAC формата: Нет
Параметр ReFrames формата: 1 кадр
Параметры GOP формата: M=1, N=12
Идентификатор кодека: avc1
Идентификатор кодека/Информация: Advanced Video Coding
Продолжительность: 1 ч. 33 м.
Вид битрейта: Переменный
Битрейт: 6251 Кбит/сек
Максимальный битрейт: 7500 Кбит/сек
Ширина: 1280 пикс.
Высота: 720 пикс.
Соотношение сторон: 16:9
Режим частоты кадров: Постоянный
Частота кадров: 29,970 кадр/сек
Частота кадров в оригинале: 24,000 кадр/сек
Цветовое пространство: YUV
Подвыборка цветности: 4:2:0
Битовая глубина: 8 бит
Тип развёртки: Прогрессивная
Бит/(Пиксели*Кадры): 0.226
Размер потока: 4,10 Гбайт (97%)
Аудио
Идентификатор: 2
Формат: AAC
Формат/Информация: Advanced Audio Codec
Профиль формата: LC
Идентификатор кодека: 40
Продолжительность: 1 ч. 33 м.
Вид битрейта: Переменный
Битрейт: 160 Кбит/сек
Каналы: 2 канала
Расположение каналов: Front: L R
Частота: 48,0 КГц
Метод сжатия: С потерями
Размер потока: 107 Мбайт (2%)

_________________
Показать сообщения:    

Текущее время: Сегодня 11:20

Часовой пояс: GMT



Вы не можете начинать темы
Вы не можете отвечать на сообщения
Вы не можете редактировать свои сообщения
Вы не можете удалять свои сообщения
Вы не можете голосовать в опросах
Вы не можете прикреплять файлы к сообщениям
Вы не можете скачивать файлы