Ивановский Торрент трекер
Яндекс.Погода
 

[Цитировать]
HUNTER

Linkin Park - Iridescent- Год: 2011
Страна: США
Жанр: Alt.Rock
Продолжительность: 00:04:05-Описание: Сегодня состоялась долгожданная премьера клипа на четвертый сингл Linkin Park "Iridescent" из альбома "A Thousand Suns". Клип снят на ремикс, который Linkin Park сделали специально для фильма "Трансформеры 3: Тёмная Сторона Луны".-Качество: HDTVRip (1080p)
Формат: MP4
Видео кодек: H.264
Аудио кодек: MPEG-4 AAC
Видео: MPEG-4 AVC, 4642 Кбит/с, 1920x1080
Аудио: AAC, 2 ch, 148 Кбит/с-

Скриншоты:


-

Текст песни


When you were standing in the wake of devastation
When you were waiting on the edge of the unknown
And with the cataclysm raining down
Insides crying, "Save me now"
You were there impossibly alone
Do you feel cold and lost in desperation
You build up hope but failure's all you've known
Remember all the sadness and frustration
And let it go
Let it go
And in a burst of light that blinded every angel
As if the sky had blown the heavens into stars
You felt the gravity of tempered grace
Falling into empty space
No one there to catch you in their arms
Do you feel cold and lost in desperation
You build up hope but failure's all you've known
Remember all the sadness and frustration
And let it go
Let it go
Do you feel cold and lost in desperation
You build up hope but failure's all you've known
Remember all the sadness and frustration
And let it go
Let it go [4x]
Do you feel cold and lost in desperation
You build up hope but failure's all you've known
Remember all the sadness and frustration
And let it go
Let it go
Когда ты стоял на обломках прошлого, опустошенный,
И ждал, боясь заглянуть за грань неизвестного,
Вода с небес залила все вокруг,
А твоя душа будто безмолвно кричала: "Спаси меня!",
Ты был невообразимо одинок.
Тебе холодно, ты погружен в отчаяние
Ты хранил надежду, но тебя продолжала постигать потеря за потерей.
Вспомни сейчас все моменты грусти и разочарования,
И отпусти их...
Отпусти.
И после вспышки света, которая ослепила бы даже ангела,
Как будто небо взорвалось и вместо него – лишь холодные звезды,
Ты почувствовал всю тяжесть явившейся тебе благодати,
Падая в пустое пространство,
И некому было подхватить тебя.
Тебе холодно, ты погружен в отчаяние
Ты хранил надежду, но тебя продолжала постигать потеря за потерей.
Вспомни сейчас все моменты грусти и разочарования,
И отпусти их...
Отпусти.
Тебе холодно, ты погружен в отчаяние
Ты хранил надежду, но тебя продолжала постигать потеря за потерей.
Вспомни сейчас все моменты грусти и разочарования,
И отпусти их.
Отпусти... [4x]
Тебе холодно, ты погружен в отчаяние
Ты хранил надежду, но тебя продолжала постигать потеря за потерей.
Вспомни сейчас все моменты грусти и разочарования,
И отпусти их...
Отпусти.
-

MediaInfo


Общее
Полное имя : D:\Клипы\Linkin.Park.Iridescent.2011.x264.HDTVRip.(1080p).mp4
Формат : MPEG-4
Профиль формата : Base Media / Version 2
Идентификатор кодека : mp42
Размер файла : 140 Мбайт
Продолжительность : 4 м. 5 с.
Общий поток : 4796 Кбит/сек
Дата кодирования : UTC 2011-06-02 16:18:05
Дата пометки : UTC 2011-06-02 16:18:05
gsst : 0
gstd : 245193
gssd : BD0419B43HH1307124149392769
gshh : tc.v8.cache5.c.youtube.com
Видео
Идентификатор : 1
Формат : AVC
Формат/Информация : Advanced Video Codec
Профиль формата : High@L4.0
Параметр CABAC формата : Да
Параметр ReFrames формата : 1 кадр
Параметры GOP формата : M=1, N=48
Идентификатор кодека : avc1
Идентификатор кодека/Информация : Advanced Video Coding
Продолжительность : 4 м. 5 с.
Вид битрейта : Переменный
Битрейт : 4642 Кбит/сек
Максимальный битрейт : 9892 Кбит/сек
Ширина : 1920 пикс.
Высота : 1080 пикс.
Соотношение сторон : 16:9
Режим частоты кадров : Переменный
Частота кадров : 23,976 кадр/сек
Минимальная частота кадров : 17,241 кадр/сек
Максимальная частота кадров : 24,390 кадр/сек
Цветовое пространство : YUV
Подвыборка цветности : 4:2:0
Битовая глубина : 8 бит
Тип развёртки : Прогрессивная
Бит/(Пиксели*Кадры) : 0.093
Размер потока : 136 Мбайт (97%)
Дата пометки : UTC 2011-06-02 16:18:11
Аудио
Идентификатор : 2
Формат : AAC
Формат/Информация : Advanced Audio Codec
Профиль формата : LC
Идентификатор кодека : 40
Продолжительность : 4 м. 5 с.
Вид битрейта : Переменный
Битрейт : 148 Кбит/сек
Максимальный битрейт : 194 Кбит/сек
Каналы : 2 канала
Расположение каналов : Front: L R
Частота : 44,1 КГц
Метод сжатия : С потерями
Размер потока : 4,32 Мбайт (3%)
Заголовок : IsoMedia File Produced by Google, 5-11-2011
Дата кодирования : UTC 2011-06-02 16:18:08
Дата пометки : UTC 2011-06-02 16:18:11
-


Показать сообщения:    

Текущее время: 18-Дек 05:21

Часовой пояс: UTC ± 0


Вы не можете начинать темы
Вы не можете отвечать на сообщения
Вы не можете редактировать свои сообщения
Вы не можете удалять свои сообщения
Вы не можете голосовать в опросах
Вы не можете прикреплять файлы к сообщениям
Вы не можете скачивать файлы

!ВНИМАНИЕ!
Сайт не предоставляет электронные версии произведений, а занимается лишь коллекционированием и каталогизацией ссылок, присылаемых и публикуемых на форуме нашими читателями. Если вы являетесь правообладателем какого-либо представленного материала и не желаете, чтобы ссылка на него находилась в нашем каталоге, свяжитесь с нами, и мы незамедлительно удалим ее. Файлы для обмена на трекере предоставлены пользователями сайта, и администрация не несет ответственности за их содержание. Просьба не заливать файлы, защищенные авторскими правами, а также файлы нелегального содержания!