Важное объявление!
У Нас Все раздачи мультитрекерные, при нуле пиров в релизах, можете смело вставать на закачку!
 
Автор Сообщение

HUNTER

Стаж:
4 года 4 месяца
Сообщений:
56765

Репутация: 101

[+] [-]
Вне форума [Профиль] [ЛС]

Linkin Park - Burn It Down- Дата выпуска: 01.06.2012
Страна: Los-Angeles, USA
Жанр: Alternative/Nu-Metal
Продолжительность: 0:04:01
Описание: официальный клип на первый сингл Burn In Down с грядущего альбома Living Things. Клип в таком качестве предоставляет Genero.tv, совместно с самой группой в рамках конкурса- Качество: Full HD (1080p)
Формат: .MOV
Video Codec: AVC
Audio Codec: PCM
Video: 1920x1080 (16:9), 23,2 Mbps, 24 fps
Audio: 1536 kbps, 48 kHz, 2 channels
-

Screenshots

MI

Общее
Полное имя : E:\LinkinPark - Burn It Down (1080p).mov
Формат : MPEG-4
Профиль формата : QuickTime
Идентификатор кодека : qt
Размер файла : 713 Мбайт
Продолжительность : 4 м. 1 с.
Общий поток : 24,8 Мбит/сек
Дата кодирования : UTC 2012-05-25 02:42:29
Дата пометки : UTC 2012-05-25 02:43:02
Библиотека кодирования : Apple QuickTime
Видео
Идентификатор : 2
Формат : AVC
Формат/Информация : Advanced Video Codec
Профиль формата : [url=mailto:Main@L5.1]Main@L5.1[/url]
Параметр CABAC формата : Нет
Параметр ReFrames формата : 2 кадра
Параметр GOP формата : M=2, N=24
Идентификатор кодека : avc1
Идентификатор кодека/Информация : Advanced Video Coding
Продолжительность : 4 м. 1 с.
Duration_FirstFrame : -35 мс.
Битрейт : 23,2 Мбит/сек
Ширина : 1920 пикселей
Высота : 1080 пикселей
Соотношение сторон : 16:9
Режим частоты кадров : Постоянный
Частота кадров : 23,976 кадра/сек
Цветовое пространство : YUV
Субдискретизация насыщенности : 4:2:0
Битовая глубина : 8 бит
Тип развёртки : Прогрессивная
Бит/(Пиксели*Кадры) : 0.467
Размер потока : 669 Мбайт (94%)
Язык : English
Дата кодирования : UTC 2012-05-25 02:41:57
Дата пометки : UTC 2012-05-25 02:43:02
Основные цвета : BT.709-5, BT.1361, IEC 61966-2-4, SMPTE RP177
Характеристики трансфера : BT.709-5, BT.1361
Коэффициенты матрицы : BT.709-5, BT.1361, IEC 61966-2-4 709, SMPTE RP177
Аудио
Идентификатор : 1
Формат : PCM
Параметр Endianness формата : Little
Параметр Sign формата : Signed
Идентификатор кодека : sowt
Продолжительность : 4 м. 1 с.
Вид битрейта : Постоянный
Битрейт : 1536 Кбит/сек
Каналы : 2 канала
Расположение каналов : Front: L R
Частота : 48,0 КГц
Битовая глубина : 16 бит
Размер потока : 44,2 Мбайт (6%)
Язык : English
Дата кодирования : UTC 2012-05-25 02:41:57
Дата пометки : UTC 2012-05-25 02:43:02

_________________
Показать сообщения:    

Текущее время: Сегодня 05:45

Часовой пояс: GMT



Вы не можете начинать темы
Вы не можете отвечать на сообщения
Вы не можете редактировать свои сообщения
Вы не можете удалять свои сообщения
Вы не можете голосовать в опросах
Вы не можете прикреплять файлы к сообщениям
Вы не можете скачивать файлы