Важное объявление!
У Нас Все раздачи мультитрекерные, при нуле пиров в релизах, можете смело вставать на закачку!
Статистика раздачи
Размер:     |    Зарегистрирован:     |    Скачан:     |   
Нет
 
     
 
 
Автор Сообщение

HUNTER

Стаж:
5 лет
Сообщений:
68414

Репутация: 101

[+] [-]
Вне форума [Профиль] [ЛС]

Lindsey Stirling (Линдси Стирлинг). Video-
Страна: США
Жанр: Hip-Hop, Violin
Продолжительность: ~ 00:45:00
Год выпуска: 2011-2012-Описание: Со скрипкой по жизни
Lindsey Stirling (Линдси Стирлинг)
Талантливая скрипачка, финалист 2010 года на America’s Got Talent. Удивительный человек, исполнитель и композитор с абсолютно новым подходом к игре на скрипке.
Живет она в городе Гилберт, штат Аризона (США)
Работает в центре помощи «трудным девочкам подросткам»
Учится в крупнейшем религиозном университете США Brigham Young University
Увлекается танцами, туризмом, активным спортивным отдыхом, созданием фильмов, а также очень любит кушать мороженное и кататься на велосипеде.
Линдси 25 лет, 18 из которых она занималась скрипкой. Играла абсолютно везде, где только можно от церковно хора, до хип-хоп концертов на национальном телевидении. Очень любит выступать, и больше всего на свете хочет стать положительным образом для подражания для девочек-подростков. Своим уникальным стилем игры она хочет доказать, что люди не должны подражать кому-либо, наиболее ценно когда создаешь что-то свое. Она считает, что самое лучшее творение получается, тогда когда ты начинаешь принимать себя таким, какой ты есть. В 2011 начала публиковать свои музыкальные видео на YouTube, набирая миллионы просмотров.
-

Треклист

01. Lindsey Stirling - By No Means-Eppic feat

Качество: WEBRip
Формат: MP4
Видео: AVC, 1920x1080 (1.78:1), 23.976 fps, 3216 kbps, 0.065 bit/pixel
Аудио: AAC, 44100Hz, stereo 151Kbps

02. Lindsey Stirling - Dubstep Violin-Crystallize

Качество: WEBRip
Формат: MP4
Видео: AVC, 1920x1080 (1.78:1), 29.970 fps, 4929 kbps, 0.079 bit/pixel
Аудио: AAC, 44100Hz, stereo 151Kbps

03. Lindsey Stirling - Electric Daisy Violin

Качество: WEBRip
Формат: MP4
Видео: AVC, 1920x1080 (1.78:1), 23.976 fps, 5988 kbps, 0.120 bit/pixel
Аудио: AAC, 44100Hz, stereo 152Kbps

04. Lindsey Stirling - Epic Violin Girl

Качество: WEBRip
Формат: MP4
Видео: AVC, 1920x1080 (1.78:1), 23.976 fps, 5557 kbps, 0.112 bit/pixel
Аудио: AAC, 44100Hz, stereo 152Kbps

05. Lindsey Stirling - Lord of the Rings Medley

Качество: WEBRip
Формат: MP4
Видео: AVC, 1920x1080 (1.78:1), 23.976 fps, 5667 kbps, 0.114 bit/pixel
Аудио: AAC, 44100Hz, stereo 152Kbps

06. Lindsey Stirling - On the Floor Take Three

Качество: WEBRip
Формат: MP4
Видео: AVC, 1920x1080 (1.78:1), 23.976 fps, 3372 kbps, 0.068 bit/pixel
Аудио: AAC, 44100Hz, stereo 152Kbps

07. Lindsey Stirling - Party Rock Anthem -Violinists can shuffle too

Качество: WEBRip
Формат: MP4
Видео: AVC, 1920x1080 (1.78:1), 23.976 fps, 3534 kbps, 0.071 bit/pixel
Аудио: AAC, 44100Hz, stereo 152Kbps

08. Lindsey Stirling - River Flows In You

Качество: WEBRip
Формат: MP4
Видео: AVC, 1920x1080 (1.78:1), 23.976 fps, 5728 kbps, 0.115 bit/pixel
Аудио: AAC, 44100Hz, stereo 152Kbps

09. Lindsey Stirling - Shadows

Качество: WEBRip
Формат: MP4
Видео: AVC, 1920x1080 (1.78:1), 23.976 fps, 2984 kbps, 0.060 bit/pixel
Аудио: AAC, 44100Hz, stereo 152Kbps

10. Lindsey Stirling - Transcendence Music Video

Качество: WEBRip
Формат: MP4
Видео: AVC, 1280x720 (1.78:1), 23.976 fps, 2457 kbps, 0.111 bit/pixel
Аудио: AAC, 44100Hz, stereo 152Kbps

11. Lindsey Stirling - Zelda Medley

Качество: WEBRip
Формат: MP4
Видео: AVC, 1920x1080 (1.78:1), 23.976 fps, 5834 kbps, 0.117 bit/pixel
Аудио: AAC, 44100Hz, stereo 152Kbps

12. Peter Hollens & Lindsey Stirling - Skyrim

Качество: WEBRip
Формат: MP4
Видео: AVC, 1920x1080 (1.78:1), 23.976 fps, 4996 kbps, 0.100 bit/pixel
Аудио: AAC, 44100Hz, stereo 152Kbps

MediaInfo

General
Complete name : G:\Видео\Клипы\Lindsey Stirling\By No Means-Eppic feat. Lindsey Stirling.mp4
Format : MPEG-4
Format profile : Base Media / Version 2
Codec ID : mp42
File size : 85.8 MiB
Duration : 3mn 33s
Overal bit rate : 3373 Kbps
Encoded date : UTC 2011-10-11 07:08:38
Tagged date : UTC 2011-10-11 07:08:38
gsst : 0
gstd : 213380
gssd : B4A7DA8A6HH1335293206060260
gshh : o-o.preferred.svo01s01.v18.lscache7.c.youtube.com
Video
Format : AVC
Format/Info : Advanced Video Codec
Format profile : [url=mailto:High@L4.0]High@L4.0[/url]
Format settings, CABAC : Yes
Format settings, ReFrames : 1 frame
Codec ID : avc1
Duration : 3mn 33s
Bit rate mode : Variable
Bit rate : 3216 Kbps
Maximum bit rate : 4624 Kbps
Width : 1920 pixels
Height : 1080 pixels
Display aspect ratio : 16/9
Frame rate mode : Variable
Frame rate : 23.976 fps
Minimum frame rate : 23.810 fps
Maximum frame rate : 24.390 fps
Colorimetry : 4:2:0
Scan type : Progressive
Bits/(Pixel*Frame) : 0.065
Stream size : 81.8 MiB
Encoded date : UTC 1970-01-01 00:00:00
Tagged date : UTC 2011-10-11 07:08:39
Audio
Format : AAC
Format/Info : Advanced Audio Codec
Format version : Version 4
Format profile : LC
Format settings, SBR : No
Codec ID : 40
Duration : 3mn 33s
Bit rate mode : Variable
Bit rate : 151 Kbps
Maximum bit rate : 184 Kbps
Channel(s) : 2 channels
Channel positions : L R
Sampling rate : 44.1 KHz
Resolution : 16 bits
Stream size : 3.84 MiB
Title : IsoMedia File Produced by Google, 5-11-2011
Encoded date : UTC 2011-10-11 07:08:39
Tagged date : UTC 2011-10-11 07:08:39
General
Complete name : G:\Видео\Клипы\Lindsey Stirling\Dubstep Violin- Lindsey Stirling- Crystallize.mp4
Format : MPEG-4
Format profile : Base Media / Version 2
Codec ID : mp42
File size : 181 MiB
Duration : 4mn 59s
Overal bit rate : 5083 Kbps
Encoded date : UTC 2012-02-22 17:38:22
Tagged date : UTC 2012-02-22 17:38:22
gsst : 0
gstd : 299466
gssd : BADC21E24HH1335293311525391
gshh : v19.nonxt3.c.youtube.com
Video
Format : AVC
Format/Info : Advanced Video Codec
Format profile : [url=mailto:High@L4.0]High@L4.0[/url]
Format settings, CABAC : Yes
Format settings, ReFrames : 1 frame
Codec ID : avc1
Duration : 4mn 59s
Bit rate mode : Variable
Bit rate : 4929 Kbps
Maximum bit rate : 7485 Kbps
Width : 1920 pixels
Height : 1080 pixels
Display aspect ratio : 16/9
Frame rate mode : Variable
Frame rate : 29.970 fps
Colorimetry : 4:2:0
Scan type : Progressive
Bits/(Pixel*Frame) : 0.079
Stream size : 176 MiB
Encoded date : UTC 1970-01-01 00:00:00
Tagged date : UTC 2012-02-22 17:38:23
Audio
Format : AAC
Format/Info : Advanced Audio Codec
Format version : Version 4
Format profile : LC
Format settings, SBR : No
Codec ID : 40
Duration : 4mn 59s
Bit rate mode : Variable
Bit rate : 152 Kbps
Maximum bit rate : 198 Kbps
Channel(s) : 2 channels
Channel positions : L R
Sampling rate : 44.1 KHz
Resolution : 16 bits
Stream size : 5.43 MiB
Title : IsoMedia File Produced by Google, 5-11-2011
Encoded date : UTC 2012-02-22 17:38:23
Tagged date : UTC 2012-02-22 17:38:23
General
Complete name : G:\Видео\Клипы\Lindsey Stirling\Electric Daisy Violin- Lindsey Stirling.mp4
Format : MPEG-4
Format profile : Base Media / Version 2
Codec ID : mp42
File size : 152 MiB
Duration : 3mn 27s
Overal bit rate : 6142 Kbps
Encoded date : UTC 2011-11-03 05:51:03
Tagged date : UTC 2011-11-03 05:51:03
gsst : 0
gstd : 207075
gssd : BD075FE48HH1335293963488575
gshh : tc.v16.cache4.c.youtube.com
Video
Format : AVC
Format/Info : Advanced Video Codec
Format profile : [url=mailto:High@L4.0]High@L4.0[/url]
Format settings, CABAC : Yes
Format settings, ReFrames : 1 frame
Codec ID : avc1
Duration : 3mn 27s
Bit rate mode : Variable
Bit rate : 5988 Kbps
Maximum bit rate : 10.4 Mbps
Width : 1920 pixels
Height : 1080 pixels
Display aspect ratio : 16/9
Frame rate mode : Variable
Frame rate : 23.976 fps
Minimum frame rate : 23.762 fps
Maximum frame rate : 24.341 fps
Colorimetry : 4:2:0
Scan type : Progressive
Bits/(Pixel*Frame) : 0.120
Stream size : 148 MiB
Encoded date : UTC 1970-01-01 00:00:00
Tagged date : UTC 2011-11-03 05:51:03
Audio
Format : AAC
Format/Info : Advanced Audio Codec
Format version : Version 4
Format profile : LC
Format settings, SBR : No
Codec ID : 40
Duration : 3mn 27s
Bit rate mode : Variable
Bit rate : 152 Kbps
Maximum bit rate : 205 Kbps
Channel(s) : 2 channels
Channel positions : L R
Sampling rate : 44.1 KHz
Resolution : 16 bits
Stream size : 3.75 MiB
Title : IsoMedia File Produced by Google, 5-11-2011
Encoded date : UTC 2011-11-03 05:51:03
Tagged date : UTC 2011-11-03 05:51:03
General
Complete name : G:\Видео\Клипы\Lindsey Stirling\Epic Violin Girl - Lindsey Stirling.mp4
Format : MPEG-4
Format profile : Base Media / Version 2
Codec ID : mp42
File size : 108 MiB
Duration : 2mn 39s
Overal bit rate : 5716 Kbps
Encoded date : UTC 2011-05-17 01:32:38
Tagged date : UTC 2011-05-17 01:32:38
gsst : 0
gstd : 159071
gssd : BADC21E42MH1335293624331995
gshh : v12.nonxt5.c.youtube.com
Video
Format : AVC
Format/Info : Advanced Video Codec
Format profile : [url=mailto:High@L4.0]High@L4.0[/url]
Format settings, CABAC : Yes
Format settings, ReFrames : 1 frame
Codec ID : avc1
Duration : 2mn 39s
Bit rate mode : Variable
Bit rate : 5557 Kbps
Maximum bit rate : 15.1 Mbps
Width : 1920 pixels
Height : 1080 pixels
Display aspect ratio : 16/9
Frame rate mode : Variable
Frame rate : 23.976 fps
Minimum frame rate : 17.241 fps
Maximum frame rate : 24.390 fps
Colorimetry : 4:2:0
Scan type : Progressive
Bits/(Pixel*Frame) : 0.112
Stream size : 105 MiB
Encoded date : UTC 1970-01-01 00:00:00
Tagged date : UTC 2011-05-17 01:32:39
Audio
Format : AAC
Format/Info : Advanced Audio Codec
Format version : Version 4
Format profile : LC
Format settings, SBR : No
Codec ID : 40
Duration : 2mn 39s
Bit rate mode : Variable
Bit rate : 152 Kbps
Maximum bit rate : 178 Kbps
Channel(s) : 2 channels
Channel positions : L R
Sampling rate : 44.1 KHz
Resolution : 16 bits
Stream size : 2.88 MiB
Title : (C) 2007 Google Inc. v08.13.2007.
Encoded date : UTC 2011-05-17 01:32:39
Tagged date : UTC 2011-05-17 01:32:39
General
Complete name : G:\Видео\Клипы\Lindsey Stirling\Lord of the Rings Medley- Lindsey Stirling.mp4
Format : MPEG-4
Format profile : Base Media / Version 2
Codec ID : mp42
File size : 164 MiB
Duration : 3mn 56s
Overal bit rate : 5821 Kbps
Encoded date : UTC 2012-02-01 20:10:43
Tagged date : UTC 2012-02-01 20:10:43
gsst : 0
gstd : 236866
gssd : BADC23A0BHH1335293775010004
gshh : o-o.preferred.svo01s01.v23.lscache5.c.youtube.com
Video
Format : AVC
Format/Info : Advanced Video Codec
Format profile : [url=mailto:High@L4.0]High@L4.0[/url]
Format settings, CABAC : Yes
Format settings, ReFrames : 1 frame
Codec ID : avc1
Duration : 3mn 56s
Bit rate mode : Variable
Bit rate : 5667 Kbps
Maximum bit rate : 11.6 Mbps
Width : 1920 pixels
Height : 1080 pixels
Display aspect ratio : 16/9
Frame rate mode : Variable
Frame rate : 23.976 fps
Colorimetry : 4:2:0
Scan type : Progressive
Bits/(Pixel*Frame) : 0.114
Stream size : 160 MiB
Encoded date : UTC 1970-01-01 00:00:00
Tagged date : UTC 2012-02-01 20:10:44
Audio
Format : AAC
Format/Info : Advanced Audio Codec
Format version : Version 4
Format profile : LC
Format settings, SBR : No
Codec ID : 40
Duration : 3mn 56s
Bit rate mode : Variable
Bit rate : 152 Kbps
Maximum bit rate : 197 Kbps
Channel(s) : 2 channels
Channel positions : L R
Sampling rate : 44.1 KHz
Resolution : 16 bits
Stream size : 4.29 MiB
Title : IsoMedia File Produced by Google, 5-11-2011
Encoded date : UTC 2012-02-01 20:10:43
Tagged date : UTC 2012-02-01 20:10:44
General
Complete name : G:\Видео\Клипы\Lindsey Stirling\On the Floor Take Three.mp4
Format : MPEG-4
Format profile : Base Media / Version 2
Codec ID : mp42
File size : 75.1 MiB
Duration : 2mn 58s
Overal bit rate : 3530 Kbps
Encoded date : UTC 2011-09-08 05:17:27
Tagged date : UTC 2011-09-08 05:17:27
gsst : 0
gstd : 178468
gssd : BD075FB44MH1335293827353979
gshh : tc.v9.cache3.c.youtube.com
Video
Format : AVC
Format/Info : Advanced Video Codec
Format profile : [url=mailto:High@L4.0]High@L4.0[/url]
Format settings, CABAC : Yes
Format settings, ReFrames : 1 frame
Codec ID : avc1
Duration : 2mn 58s
Bit rate mode : Variable
Bit rate : 3372 Kbps
Maximum bit rate : 5658 Kbps
Width : 1920 pixels
Height : 1080 pixels
Display aspect ratio : 16/9
Frame rate mode : Variable
Frame rate : 23.976 fps
Minimum frame rate : 23.810 fps
Maximum frame rate : 24.390 fps
Colorimetry : 4:2:0
Scan type : Progressive
Bits/(Pixel*Frame) : 0.068
Stream size : 71.7 MiB
Encoded date : UTC 1970-01-01 00:00:00
Tagged date : UTC 2011-09-08 05:17:28
Audio
Format : AAC
Format/Info : Advanced Audio Codec
Format version : Version 4
Format profile : LC
Format settings, SBR : No
Codec ID : 40
Duration : 2mn 58s
Bit rate mode : Variable
Bit rate : 152 Kbps
Maximum bit rate : 212 Kbps
Channel(s) : 2 channels
Channel positions : L R
Sampling rate : 44.1 KHz
Resolution : 16 bits
Stream size : 3.23 MiB
Title : IsoMedia File Produced by Google, 5-11-2011
Encoded date : UTC 2011-09-08 05:17:27
Tagged date : UTC 2011-09-08 05:17:28
General
Complete name : G:\Видео\Клипы\Lindsey Stirling\Party Rock Anthem -Violinists can shuffle too.mp4
Format : MPEG-4
Format profile : Base Media / Version 2
Codec ID : mp42
File size : 93.0 MiB
Duration : 3mn 31s
Overal bit rate : 3691 Kbps
Encoded date : UTC 2011-08-24 09:08:16
Tagged date : UTC 2011-08-24 09:08:16
gsst : 0
gstd : 211420
gssd : BADC21E44HH1335293881962924
gshh : v24.nonxt5.c.youtube.com
Video
Format : AVC
Format/Info : Advanced Video Codec
Format profile : [url=mailto:High@L4.0]High@L4.0[/url]
Format settings, CABAC : Yes
Format settings, ReFrames : 1 frame
Codec ID : avc1
Duration : 3mn 31s
Bit rate mode : Variable
Bit rate : 3534 Kbps
Maximum bit rate : 7463 Kbps
Width : 1920 pixels
Height : 1080 pixels
Display aspect ratio : 16/9
Frame rate mode : Variable
Frame rate : 23.976 fps
Minimum frame rate : 23.810 fps
Maximum frame rate : 24.390 fps
Colorimetry : 4:2:0
Scan type : Progressive
Bits/(Pixel*Frame) : 0.071
Stream size : 89.1 MiB
Encoded date : UTC 1970-01-01 00:00:00
Tagged date : UTC 2011-08-24 09:08:17
Audio
Format : AAC
Format/Info : Advanced Audio Codec
Format version : Version 4
Format profile : LC
Format settings, SBR : No
Codec ID : 40
Duration : 3mn 31s
Bit rate mode : Variable
Bit rate : 152 Kbps
Maximum bit rate : 187 Kbps
Channel(s) : 2 channels
Channel positions : L R
Sampling rate : 44.1 KHz
Resolution : 16 bits
Stream size : 3.83 MiB
Title : IsoMedia File Produced by Google, 5-11-2011
Encoded date : UTC 2011-08-24 09:08:16
Tagged date : UTC 2011-08-24 09:08:17
General
Complete name : G:\Видео\Клипы\Lindsey Stirling\River Flows In You- Lindsey Stirling.mp4
Format : MPEG-4
Format profile : Base Media / Version 2
Codec ID : mp42
File size : 139 MiB
Duration : 3mn 17s
Overal bit rate : 5886 Kbps
Encoded date : UTC 2011-09-21 02:37:01
Tagged date : UTC 2011-09-21 02:37:01
gsst : 0
gstd : 197988
gssd : BADC21E45MH1335294823040328
gshh : v5.nonxt5.c.youtube.com
Video
Format : AVC
Format/Info : Advanced Video Codec
Format profile : [url=mailto:High@L4.0]High@L4.0[/url]
Format settings, CABAC : Yes
Format settings, ReFrames : 1 frame
Codec ID : avc1
Duration : 3mn 17s
Bit rate mode : Variable
Bit rate : 5728 Kbps
Maximum bit rate : 10.3 Mbps
Width : 1920 pixels
Height : 1080 pixels
Display aspect ratio : 16/9
Frame rate mode : Variable
Frame rate : 23.976 fps
Minimum frame rate : 23.810 fps
Maximum frame rate : 24.390 fps
Colorimetry : 4:2:0
Scan type : Progressive
Bits/(Pixel*Frame) : 0.115
Stream size : 135 MiB
Encoded date : UTC 1970-01-01 00:00:00
Tagged date : UTC 2011-09-21 02:37:05
Audio
Format : AAC
Format/Info : Advanced Audio Codec
Format version : Version 4
Format profile : LC
Format settings, SBR : No
Codec ID : 40
Duration : 3mn 17s
Bit rate mode : Variable
Bit rate : 152 Kbps
Maximum bit rate : 211 Kbps
Channel(s) : 2 channels
Channel positions : L R
Sampling rate : 44.1 KHz
Resolution : 16 bits
Stream size : 3.59 MiB
Title : IsoMedia File Produced by Google, 5-11-2011
Encoded date : UTC 2011-09-21 02:37:04
Tagged date : UTC 2011-09-21 02:37:05
General
Complete name : G:\Видео\Клипы\Lindsey Stirling\Shadows- Lindsey Stirling.mp4
Format : MPEG-4
Format profile : Base Media / Version 2
Codec ID : mp42
File size : 87.7 MiB
Duration : 3mn 54s
Overal bit rate : 3139 Kbps
Encoded date : UTC 2012-01-08 22:05:54
Tagged date : UTC 2012-01-08 22:05:54
gsst : 0
gstd : 234543
gssd : B4A7DA8EBHH1335295486810033
gshh : o-o.preferred.svo01s01.v11.lscache3.c.youtube.com
Video
Format : AVC
Format/Info : Advanced Video Codec
Format profile : [url=mailto:High@L4.0]High@L4.0[/url]
Format settings, CABAC : Yes
Format settings, ReFrames : 1 frame
Codec ID : avc1
Duration : 3mn 54s
Bit rate mode : Variable
Bit rate : 2984 Kbps
Maximum bit rate : 5630 Kbps
Width : 1920 pixels
Height : 1080 pixels
Display aspect ratio : 16/9
Frame rate mode : Variable
Frame rate : 23.976 fps
Colorimetry : 4:2:0
Scan type : Progressive
Bits/(Pixel*Frame) : 0.060
Stream size : 83.4 MiB
Encoded date : UTC 1970-01-01 00:00:00
Tagged date : UTC 2012-01-08 22:05:54
Audio
Format : AAC
Format/Info : Advanced Audio Codec
Format version : Version 4
Format profile : LC
Format settings, SBR : No
Codec ID : 40
Duration : 3mn 54s
Bit rate mode : Variable
Bit rate : 152 Kbps
Maximum bit rate : 187 Kbps
Channel(s) : 2 channels
Channel positions : L R
Sampling rate : 44.1 KHz
Resolution : 16 bits
Stream size : 4.25 MiB
Title : IsoMedia File Produced by Google, 5-11-2011
Encoded date : UTC 2012-01-08 22:05:54
Tagged date : UTC 2012-01-08 22:05:54
General
Complete name : G:\Видео\Клипы\Lindsey Stirling\Skyrim- Peter Hollens & Lindsey Stirling.mp4
Format : MPEG-4
Format profile : Base Media / Version 2
Codec ID : mp42
File size : 132 MiB
Duration : 3mn 35s
Overal bit rate : 5151 Kbps
Encoded date : UTC 2012-04-02 22:03:34
Tagged date : UTC 2012-04-02 22:03:34
gsst : 0
gstd : 215225
gssd : BD075FB45HH1335295998305115
gshh : tc.v5.cache3.c.youtube.com
Video
Format : AVC
Format/Info : Advanced Video Codec
Format profile : [url=mailto:High@L4.0]High@L4.0[/url]
Format settings, CABAC : Yes
Format settings, ReFrames : 1 frame
Codec ID : avc1
Duration : 3mn 35s
Bit rate mode : Variable
Bit rate : 4996 Kbps
Maximum bit rate : 12.0 Mbps
Width : 1920 pixels
Height : 1080 pixels
Display aspect ratio : 16/9
Frame rate mode : Variable
Frame rate : 23.976 fps
Colorimetry : 4:2:0
Scan type : Progressive
Bits/(Pixel*Frame) : 0.100
Stream size : 128 MiB
Encoded date : UTC 1970-01-01 00:00:00
Tagged date : UTC 2012-04-02 22:03:35
Audio
Format : AAC
Format/Info : Advanced Audio Codec
Format version : Version 4
Format profile : LC
Format settings, SBR : No
Codec ID : 40
Duration : 3mn 35s
Bit rate mode : Variable
Bit rate : 152 Kbps
Maximum bit rate : 193 Kbps
Channel(s) : 2 channels
Channel positions : L R
Sampling rate : 44.1 KHz
Resolution : 16 bits
Stream size : 3.90 MiB
Title : IsoMedia File Produced by Google, 5-11-2011
Encoded date : UTC 2012-04-02 22:03:34
Tagged date : UTC 2012-04-02 22:03:35
General
Complete name : G:\Видео\Клипы\Lindsey Stirling\Transcendence Music Video - Lindsey Stirling.mp4
Format : MPEG-4
Format profile : Base Media / Version 2
Codec ID : mp42
File size : 74.3 MiB
Duration : 3mn 58s
Overal bit rate : 2615 Kbps
Encoded date : UTC 2011-07-28 11:09:58
Tagged date : UTC 2011-07-28 11:09:58
gsst : 0
gstd : 238320
gssd : BADC21EA1HH1335295673539125
gshh : v21.nonxt4.c.youtube.com
Video
Format : AVC
Format/Info : Advanced Video Codec
Format profile : [url=mailto:High@L3.1]High@L3.1[/url]
Format settings, CABAC : Yes
Format settings, ReFrames : 1 frame
Codec ID : avc1
Duration : 3mn 58s
Bit rate mode : Variable
Bit rate : 2457 Kbps
Maximum bit rate : 3911 Kbps
Width : 1280 pixels
Height : 720 pixels
Display aspect ratio : 16/9
Frame rate mode : Variable
Frame rate : 23.976 fps
Minimum frame rate : 23.810 fps
Maximum frame rate : 24.390 fps
Colorimetry : 4:2:0
Scan type : Progressive
Bits/(Pixel*Frame) : 0.111
Stream size : 69.8 MiB
Encoded date : UTC 1970-01-01 00:00:00
Tagged date : UTC 2011-07-28 11:09:59
Audio
Format : AAC
Format/Info : Advanced Audio Codec
Format version : Version 4
Format profile : LC
Format settings, SBR : No
Codec ID : 40
Duration : 3mn 58s
Bit rate mode : Variable
Bit rate : 152 Kbps
Maximum bit rate : 210 Kbps
Channel(s) : 2 channels
Channel positions : L R
Sampling rate : 44.1 KHz
Resolution : 16 bits
Stream size : 4.32 MiB
Title : IsoMedia File Produced by Google, 5-11-2011
Encoded date : UTC 2011-07-28 11:09:58
Tagged date : UTC 2011-07-28 11:09:59
General
Complete name : G:\Видео\Клипы\Lindsey Stirling\Zelda Medley- Lindsey Stirling.mp4
Format : MPEG-4
Format profile : Base Media / Version 2
Codec ID : mp42
File size : 177 MiB
Duration : 4mn 8s
Overal bit rate : 5988 Kbps
Encoded date : UTC 2011-11-25 23:40:31
Tagged date : UTC 2011-11-25 23:40:31
gsst : 0
gstd : 248290
gssd : BADC21E85HH1335295880149229
gshh : v20.nonxt2.c.youtube.com
Video
Format : AVC
Format/Info : Advanced Video Codec
Format profile : [url=mailto:High@L4.0]High@L4.0[/url]
Format settings, CABAC : Yes
Format settings, ReFrames : 1 frame
Codec ID : avc1
Duration : 4mn 8s
Bit rate mode : Variable
Bit rate : 5834 Kbps
Maximum bit rate : 13.2 Mbps
Width : 1920 pixels
Height : 1080 pixels
Display aspect ratio : 16/9
Frame rate mode : Variable
Frame rate : 23.976 fps
Minimum frame rate : 23.762 fps
Maximum frame rate : 24.341 fps
Colorimetry : 4:2:0
Scan type : Progressive
Bits/(Pixel*Frame) : 0.117
Stream size : 173 MiB
Encoded date : UTC 1970-01-01 00:00:00
Tagged date : UTC 2011-11-25 23:40:32
Audio
Format : AAC
Format/Info : Advanced Audio Codec
Format version : Version 4
Format profile : LC
Format settings, SBR : No
Codec ID : 40
Duration : 4mn 8s
Bit rate mode : Variable
Bit rate : 152 Kbps
Maximum bit rate : 179 Kbps
Channel(s) : 2 channels
Channel positions : L R
Sampling rate : 44.1 KHz
Resolution : 16 bits
Stream size : 4.50 MiB
Title : IsoMedia File Produced by Google, 5-11-2011
Encoded date : UTC 2011-11-25 23:40:32
Tagged date : UTC 2011-11-25 23:40:32
-

_________________
Показать сообщения:    

Текущее время: Сегодня 01:26

Часовой пояс: GMT



Вы не можете начинать темы
Вы не можете отвечать на сообщения
Вы не можете редактировать свои сообщения
Вы не можете удалять свои сообщения
Вы не можете голосовать в опросах
Вы не можете прикреплять файлы к сообщениям
Вы не можете скачивать файлы