Ивановский Торрент трекер
Яндекс.Погода
DL-List and Torrent activity
None
 
     
 
style="text-align: center"
 

[Quote]
HUNTER

Мрачная ночь / Ночь так темна / So Dark the Night
Страна: США
Студия: Larry Darmour Productions
Жанр: фильм-нуар, драма, криминал
Год выпуска: 1946
Продолжительность: 01:10:16
Перевод: Одноголосый закадровый Глеб Бусов
Субтитры: английские SDH, испанские
Оригинальная аудиодорожка: английский
Режиссер: Джозеф Х. Льюис / Joseph H. Lewis
В ролях: Стивен Герэй, Мишлин Шерель, Юджин Борден, Энн Коуди, Эгон Бречер, Хелен Фриман, Брава Теодор, Грегори Гайе, Жан Дель Вэл, Эмиль Рамо, Пол Мэрион, Марсель Кордей, Адриэнна Д’Амбрикур и др.
Описание: Знаменитый и непреклонный парижский детектив Анри Кассэн, берет первый за последние 11 лет отпуск, и отправляется в небольшое селение. Там он встречает и влюбляется в молодую дочь хозяина сельской гостиницы Нанетт. В неё также влюблён молодой фермер Леон, с которым она дружна с детства. Во время празднования помолвки Кассэна и Нанетт, девушка вместе с Леоном неожиданно исчезает, а несколько дней спустя их находят мёртвыми. Сможет ли известный детектив распутать новое дело?-Сэмпл IMDB Кинопоиск
-
Доп. информация:
Большое Спасибо всем, кто принял участие в появлении перевода и озвучки к этому фильму:
Магда, Lafajet, jasenka, yanaelisa, STICK24, cementit, exact, Ugo927, killer snowman, борюська, voostorg, bvedargh, spartakeynoir, елена 22, sindzi, Patsy+
Тип релиза: BDRemux 1080p
Контейнер: MKV
Видео: AVC / 1920x1080 / 16:9 / 23.976 fps / 35000 Kbps / High@L4.1
Аудио 1 Rus: DTS-HD MA / 48.0 KHz / 2.0 / 1878 kbps / 16 bit (DTS Core 48.0 KHz / 2.0 / 1509 kbps / 16 bit) VO / Глеб Бусов
Аудио 2 Eng: DTS-HD MA / 48.0 KHz / 2.0 / 1844 kbps / 16 bit (DTS Core 48.0 KHz / 2.0 / 1509 kbps / 16 bit)
Аудио 3 Eng: AAC-LC / 48.0 KHz / 2.0 / 192 kbps / Commentary by film critics Glenn Kenny and Farran Smith Nehme
Формат субтитров: softsub (SRT)

MediaInfo

Общее
Уникальный идентификатор : 83981340718372007820262994452748160778 (0x3F2E37C75F4F7B8FC4FF2EAC9CA3CF0A)
Полное имя : E:\porvaliparus.2019\So.Dark.the.Night.1946.BDRemux.1080p.mkv
Формат : Matroska
Версия формата : Version 4 / Version 2
Размер файла : 18,7 Гбайт
Продолжительность : 1 ч. 10 м.
Общий поток : 38,1 Мбит/сек
Название фильма : So.Dark.the.Night.1946.BDRemux.1080p-porvaliparus
Дата кодирования : UTC 2019-06-08 04:19:09
Программа кодирования : mkvmerge v34.0.0 ('Sight and Seen') 64-bit
Библиотека кодирования : libebml v1.3.7 + libmatroska v1.5.0
Видео
Идентификатор : 1
Формат : AVC
Формат/Информация : Advanced Video Codec
Профиль формата : High@L4.1
Настройки формата : CABAC / 4 Ref Frames
Параметр CABAC формата : Да
Параметр RefFrames формата : 4 кадра
Идентификатор кодека : V_MPEG4/ISO/AVC
Продолжительность : 1 ч. 10 м.
Вид битрейта : Постоянный
Битрейт : 35,0 Мбит/сек
Ширина : 1920 пикселей
Высота : 1080 пикселей
Соотношение сторон : 16:9
Режим частоты кадров : Постоянный
Частота кадров : 23,976 (24000/1001) кадра/сек
Цветовое пространство : YUV
Субдискретизация насыщенности : 4:2:0
Битовая глубина : 8 бит
Тип развёртки : Прогрессивная
Бит/(Пиксели*Кадры) : 0.704
Размер потока : 16,8 Гбайт (90%)
Заголовок : So.Dark.the.Night.1946.BDRemux.1080p
Default : Да
Forced : Нет
Аудио #1
Идентификатор : 2
Формат : DTS
Формат/Информация : Digital Theater Systems
Профиль формата : MA / Core
Идентификатор кодека : A_DTS
Продолжительность : 1 ч. 10 м.
Вид битрейта : Переменный / Постоянный
Битрейт : 1878 Кбит/сек / 1509 Кбит/сек
Каналы : 2 канала
Расположение каналов : Front: L R
Частота : 48,0 КГц
Частота кадров : 93,750 кадра/сек (512 SPF)
Битовая глубина : 24 бит
Метод сжатия : Без потерь / Lossy
Размер потока : 944 Мбайт (5%)
Заголовок : VO [Глеб Бусов]
Язык : Russian
Default : Да
Forced : Нет
Аудио #2
Идентификатор : 3
Формат : DTS
Формат/Информация : Digital Theater Systems
Профиль формата : MA / Core
Идентификатор кодека : A_DTS
Продолжительность : 1 ч. 10 м.
Вид битрейта : Переменный / Постоянный
Битрейт : 1844 Кбит/сек / 1509 Кбит/сек
Каналы : 2 канала
Расположение каналов : Front: L R
Частота : 48,0 КГц
Частота кадров : 93,750 кадра/сек (512 SPF)
Битовая глубина : 24 бит
Метод сжатия : Без потерь / Lossy
Размер потока : 927 Мбайт (5%)
Язык : English
Default : Нет
Forced : Нет
Аудио #3
Идентификатор : 4
Формат : AAC
Формат/Информация : Advanced Audio Codec
Профиль формата : LC
Идентификатор кодека : A_AAC-2
Продолжительность : 1 ч. 10 м.
Битрейт : 192 Кбит/сек
Каналы : 2 канала
Расположение каналов : Front: L R
Частота : 48,0 КГц
Частота кадров : 46,875 кадров/сек (1024 SPF)
Метод сжатия : С потерями
Задержка видео : 9 мс.
Размер потока : 96,5 Мбайт (1%)
Заголовок : Commentary by film critics Glenn Kenny and Farran Smith Nehme
Язык : English
Default : Нет
Forced : Нет
Текст #1
Идентификатор : 5
Формат : UTF-8
Идентификатор кодека : S_TEXT/UTF8
Идентификатор кодека/Информация : UTF-8 Plain Text
Продолжительность : 1 ч. 8 м.
Битрейт : 59 бит/сек
ElementCount : 777
Размер потока : 29,7 Кбайт (0%)
Заголовок : SDH
Язык : English
Default : Нет
Forced : Нет
Текст #2
Идентификатор : 6
Формат : UTF-8
Идентификатор кодека : S_TEXT/UTF8
Идентификатор кодека/Информация : UTF-8 Plain Text
Продолжительность : 1 ч. 8 м.
Битрейт : 57 бит/сек
ElementCount : 748
Размер потока : 28,9 Кбайт (0%)
Язык : Spanish
Default : Нет
Forced : Нет
Текст #3
Идентификатор : 7
Формат : PGS
Идентификатор кодека : S_HDMV/PGS
Идентификатор кодека/Информация : Picture based subtitle format used on BDs/HD-DVDs
Продолжительность : 1 ч. 8 м.
Битрейт : 32,7 Кбит/сек
ElementCount : 1554
Размер потока : 16,0 Мбайт (0%)
Заголовок : SDH
Язык : English
Default : Нет
Forced : Нет
Меню
00:00:00.000 : en:Chapter 1
00:05:15.524 : en:Chapter 2
00:11:57.050 : en:Chapter 3
00:17:54.031 : en:Chapter 4
00:23:23.694 : en:Chapter 5
00:29:42.823 : en:Chapter 6
00:33:33.136 : en:Chapter 7
00:40:55.703 : en:Chapter 8
00:46:30.287 : en:Chapter 9
00:54:08.412 : en:Chapter 10
01:00:27.040 : en:Chapter 11
01:04:08.470 : en:Chapter 12

Скриншоты


Сведения о Blu-Ray

Disc Title: SO DARK THE NIGHT
Disc Label: SO DARK THE NIGHT
Disc Size: 29,587,210,708 bytes
Protection: AACS
Playlist: 00000.MPLS
Size: 21,895,292,544 bytes
Length: 1:10:16.170
Total Bitrate: 41.55 Mbps
Video: MPEG-4 AVC Video / 35000 kbps / 1080p / 23.976 fps / 16:9 / High Profile 4.1
Audio: English / LPCM Audio / 2.0 / 48 kHz / 2304 kbps / 24-bit
Audio: English / LPCM Audio / 2.0 / 48 kHz / 2304 kbps / 24-bit
Subtitle: English / 31.859 kbps


Display posts:    

Current time is: 26-Aug 03:25

All times are UTC ± 0


You cannot post new topics in this forum
You cannot reply to topics in this forum
You cannot edit your posts in this forum
You cannot delete your posts in this forum
You cannot vote in polls in this forum
You cannot attach files in this forum
You cannot download files in this forum

!ATTENTION!
The site does not give electronic versions of products, and is engaged only in a collecting and cataloguing of the references sent and published at a forum by our readers. If you are the legal owner of any submitted material and do not wish that the reference to it was in our catalogue, contact us and we shall immediately remove her. Files for an exchange on tracker are given by users of a site, and the administration does not bear the responsibility for their maintenance. The request to not fill in the files protected by copyrights, and also files of the illegal maintenance!