Ивановский Торрент трекер
Яндекс.Погода
DL-List and Torrent activity
Size:  8.69 GB   |    Registered:  2 months 22 days   |    Completed:  4 times
DL-List: None

Seeder not seen: Never

 
     
 
 
 

[Quote]
HUNTER

Лепрекон / Leprechaun
Страна: США
Жанр: ужасы, фэнтези, комедия
Год выпуска: 1993
Продолжительность: 1:24:31
Перевод: Профессиональный (многоголосый закадровый) Ren-TV
Субтитры: нет
Режиссер: Марк Джонс / Mark Jones
В ролях: Уорвик Дэвис, Дженнифер Энистон, Кен Оландт, Марк Холтон, Роберт Хай Гормен, Шэй Даффин, Джон Сандерфорд, Джон Волдстад, Памела Мэнт, Уильям Ньюман
Описание: Мистер О`Грейди неожиданно приезжает из Ирландии богатым человеком. Жена О«Грейди думает, что он просто пьян и не в своём уме, когда О»Грейди заявляет, что он украл золото у Лепрекона и сейчас они заживут по-новому.
Правда, он не учёл маленькой детали: сам Лепрекон каким-то образом приехал вместе с ним в одном из чемоданов и одержим местью к тому, кто позарился на его богатства…
Качество видео: DVB
Формат видео: MPG
Видео: MPEG-2, 704x576, 4:3, 25 fps, 3500 kb/s
Аудио: MPEG-1, 48 кГц, 192 кб/с, 1 канал (Ren-TV)

MediaInfo

General
Complete name : V:\VHS\Лепрекон\Лепрекон 1 (Ren-TV).mpg
Format : MPEG-PS
File size : 2.25 GiB
Duration : 1 h 24 min
Overall bit rate mode : Variable
Overall bit rate : 3 816 kb/s
Video
ID : 224 (0xE0)
Format : MPEG Video
Format version : Version 2
Format profile : Main@Main
Format settings, BVOP : Yes
Format settings, Matrix : Custom
Format settings, GOP : Variable
Duration : 1 h 24 min
Bit rate mode : Variable
Bit rate : 3 548 kb/s
Maximum bit rate : 90.0 Mb/s
Width : 704 pixels
Height : 576 pixels
Display aspect ratio : 4:3
Frame rate : 25.000 FPS
Standard : PAL
Color space : YUV
Chroma subsampling : 4:2:0
Bit depth : 8 bits
Scan type : Progressive
Scan order : Top Field First
Compression mode : Lossy
Bits/(Pixel*Frame) : 0.350
Time code of first frame : 00:00:00:00
Time code source : Group of pictures header
GOP, Open/Closed : Open
GOP, Open/Closed of first f : Closed
Stream size : 2.09 GiB (93%)
Audio
ID : 192 (0xC0)
Format : MPEG Audio
Format version : Version 1
Format profile : Layer 2
Duration : 1 h 24 min
Bit rate mode : Constant
Bit rate : 192 kb/s
Channel(s) : 1 channel
Sampling rate : 48.0 kHz
Compression mode : Lossy
Stream size : 116 MiB (5%)

Скриншот c названием фильма

Скриншоты

=====================================================================
Лепрекон 2 / Leprechaun 2
Страна: США
Жанр: ужасы, фэнтези, комедия
Год выпуска: 1994
Продолжительность: 1:18:27
Перевод: Профессиональный (многоголосый закадровый) Ren-TV
Субтитры: нет
Режиссер: Родмэн Флендер / Rodman Flander
В ролях: Уорвик Дэвис, Чарли Хез, Живан Даркин, Сэнди Барон, Адам Биск, Джеймс Ланкастер
Описание: Время лечит раны, но не стирает обиды. Злой гном Лепрекон, вновь освобожденный из многолетнего заточения, выходит из подземелья, в поисках наследника своего заклятого врага, продолжая кровавую жатву, уничтожает всех, кто покушается на его золото. К тому же он теперь одержим еще одной мечтой: Лепрекон хочет жениться, и в поисках невесты карлик-убийца не останавливается ни перед чем...
Качество видео: DVB
Формат видео: MPG
Видео: MPEG-2, 704x576, 4:3, 25 fps, 3500 kb/s
Аудио: MPEG-1, 48 кГц, 192 кб/с, 1 канал (Ren-TV)

MediaInfo

General
Complete name : V:\VHS\Лепрекон\Лепрекон 2 (Ren-TV).mpg
Format : MPEG-PS
File size : 2.09 GiB
Duration : 1 h 18 min
Overall bit rate mode : Variable
Overall bit rate : 3 817 kb/s
Video
ID : 224 (0xE0)
Format : MPEG Video
Format version : Version 2
Format profile : Main@Main
Format settings, BVOP : Yes
Format settings, Matrix : Custom
Format settings, GOP : Variable
Duration : 1 h 18 min
Bit rate mode : Variable
Bit rate : 3 549 kb/s
Maximum bit rate : 90.0 Mb/s
Width : 704 pixels
Height : 576 pixels
Display aspect ratio : 4:3
Frame rate : 25.000 FPS
Standard : PAL
Color space : YUV
Chroma subsampling : 4:2:0
Bit depth : 8 bits
Compression mode : Lossy
Bits/(Pixel*Frame) : 0.350
Time code of first frame : 00:00:00:00
Time code source : Group of pictures header
GOP, Open/Closed : Open
GOP, Open/Closed of first f : Closed
Stream size : 1.94 GiB (93%)
Audio
ID : 192 (0xC0)
Format : MPEG Audio
Format version : Version 1
Format profile : Layer 2
Duration : 1 h 18 min
Bit rate mode : Constant
Bit rate : 192 kb/s
Channel(s) : 1 channel
Sampling rate : 48.0 kHz
Compression mode : Lossy
Stream size : 108 MiB (5%)

Скриншот c названием фильма

Скриншоты

=====================================================================
Лепрекон 3 / Leprechaun 3
Страна: США
Жанр: ужасы, фэнтези, комедия
Год выпуска: 1995
Продолжительность: 1:24:58
Перевод: Профессиональный (многоголосый закадровый) Ren-TV
Субтитры: нет
Режиссер: Брайан Тренчард-Смит / Brian Trenchard-Smith
В ролях: Уорвик Дэвис, Джон Гэйтинс, Ли Армстронг, Марсело Туберт, Джон Демита
Описание: В руки жадному скупщику, работающему в ломбарде расположенном в Лас-Вегасе, попадает каменная статуэтка, изображающая некоего уродца. Наплевав на наказание продавца “ни при каких условиях не снимать надетый на шею статуи талисман”, вместе с драгоценностью скупщик снимает проклятие с Лепрекона. Тот оживает, сея на своем пути смерть и ужас, а однажды, в поисках оброненного золотого шиллинга, попадает в казино, где чувствует себя, как дома...
Качество видео: DVB
Формат видео: MPG
Видео: MPEG-2, 704x576, 4:3, 25 fps, 3700 kb/s
Аудио: MPEG-1, 48 кГц, 192 кб/с, 1 канал (Ren-TV)

MediaInfo

General
Complete name : V:\VHS\Лепрекон\Лепрекон 3 (Ren-TV).mpg
Format : MPEG-PS
File size : 2.38 GiB
Duration : 1 h 24 min
Overall bit rate mode : Variable
Overall bit rate : 4 007 kb/s
Video
ID : 224 (0xE0)
Format : MPEG Video
Format version : Version 2
Format profile : Main@Main
Format settings, BVOP : Yes
Format settings, Matrix : Custom
Format settings, GOP : Variable
Duration : 1 h 24 min
Bit rate mode : Variable
Bit rate : 3 735 kb/s
Maximum bit rate : 90.0 Mb/s
Width : 704 pixels
Height : 576 pixels
Display aspect ratio : 4:3
Frame rate : 25.000 FPS
Standard : PAL
Color space : YUV
Chroma subsampling : 4:2:0
Bit depth : 8 bits
Compression mode : Lossy
Bits/(Pixel*Frame) : 0.368
Time code of first frame : 00:00:00:00
Time code source : Group of pictures header
GOP, Open/Closed : Open
GOP, Open/Closed of first f : Closed
Stream size : 2.22 GiB (93%)
Audio
ID : 192 (0xC0)
Format : MPEG Audio
Format version : Version 1
Format profile : Layer 2
Duration : 1 h 24 min
Bit rate mode : Constant
Bit rate : 192 kb/s
Channel(s) : 1 channel
Sampling rate : 48.0 kHz
Compression mode : Lossy
Stream size : 117 MiB (5%)

Скриншот c названием фильма

Скриншоты

=====================================================================
Лепрекон 4 / Leprechaun 4
Страна: США
Жанр: ужасы, фэнтези, комедия
Год выпуска: 1996
Продолжительность: 1:30:20
Перевод: Профессиональный (многоголосый закадровый) Ren-TV
Субтитры: нет
Режиссер: Брайан Тренчард-Смит / Brian Trenchard-Smith
В ролях: Уорвик Дэвис, Брент Джэсмер, Джессика Коллинз, Гай Сайнер, Гари Гроссман, Ребекка Кросс, Тим Колсери, Мигель А. Нуньес мл. Дебби Даннинг, Майк Каннидзо, Рик Питерс, Джеймс Куинн, Лэдд Йорк, Джофф Мид
Описание: В межпланетных глубинах 21-го века злой гном Лепрекон задумал жениться на прекрасной принцессе Зарине. Ей на помощь приходит отряд космических рейнджеров, но и кровожадный карлик проникает на звездолет. Здесь, где возможны самые невероятные фантастические перевоплощения, начинается очередной раунд битвы с Лепреконом…
Качество видео: DVB
Формат видео: MPG
Видео: MPEG-2, 704x576, 4:3, 25 fps, 2900 kb/s
Аудио: MPEG-1, 48 кГц, 192 кб/с, 1 канал (Ren-TV)

MediaInfo

General
Complete name : V:\VHS\Лепрекон\Лепрекон 4 (Ren-TV).mpg
Format : MPEG-PS
File size : 1.97 GiB
Duration : 1 h 30 min
Overall bit rate mode : Variable
Overall bit rate : 3 116 kb/s
Video
ID : 224 (0xE0)
Format : MPEG Video
Format version : Version 2
Format profile : Main@Main
Format settings, BVOP : Yes
Format settings, Matrix : Custom
Format settings, GOP : Variable
Duration : 1 h 30 min
Bit rate mode : Variable
Bit rate : 2 862 kb/s
Maximum bit rate : 15.0 Mb/s
Width : 704 pixels
Height : 576 pixels
Display aspect ratio : 4:3
Frame rate : 25.000 FPS
Standard : PAL
Color space : YUV
Chroma subsampling : 4:2:0
Bit depth : 8 bits
Compression mode : Lossy
Bits/(Pixel*Frame) : 0.282
Time code of first frame : 00:00:00:00
Time code source : Group of pictures header
GOP, Open/Closed : Open
GOP, Open/Closed of first f : Closed
Stream size : 1.81 GiB (92%)
Audio
ID : 192 (0xC0)
Format : MPEG Audio
Format version : Version 1
Format profile : Layer 2
Duration : 1 h 30 min
Bit rate mode : Constant
Bit rate : 192 kb/s
Channel(s) : 1 channel
Sampling rate : 48.0 kHz
Compression mode : Lossy
Stream size : 124 MiB (6%)

Скриншот c названием фильма

Скриншоты

=====================================================================
Доп. информация: Записывал со спутника Экспресс 80*в.д. в 2005-м году, без пересжатия.
Сэмпл: https://www.sendspace.com/file/sx7gy8
[iv-torrents.ru].t92985.torrent
Torrent: Registered [ 2019-01-27 14:33 ] · 62189FD2A6822CD1C0BA54015A6B10A2DC02C996

Download .torrent

Download

22 KB

Status: checked
Completed: 4 times
Size: 8.69 GB
terms.php


Quick Reply

Name:

               
       
     
Heads necessary to send messages to enable JavaScript
Display posts:    

Current time is: 19-Apr 05:16

All times are UTC ± 0


You can post new topics in this forum
You can reply to topics in this forum
You cannot edit your posts in this forum
You cannot delete your posts in this forum
You cannot vote in polls in this forum
You cannot attach files in this forum
You can download files in this forum

!ATTENTION!
The site does not give electronic versions of products, and is engaged only in a collecting and cataloguing of the references sent and published at a forum by our readers. If you are the legal owner of any submitted material and do not wish that the reference to it was in our catalogue, contact us and we shall immediately remove her. Files for an exchange on tracker are given by users of a site, and the administration does not bear the responsibility for their maintenance. The request to not fill in the files protected by copyrights, and also files of the illegal maintenance!