Важное объявление!
У Нас Все раздачи мультитрекерные, при нуле пиров в релизах, можете смело вставать на закачку!
 
Автор Сообщение

HUNTER

Стаж:
4 года 7 месяцев
Сообщений:
61564

Репутация: 101

[+] [-]
Вне форума [Профиль] [ЛС]

Туториал по реверсингу для нубов от lena151
Год выпуска: 2015
Производитель: lena151
Сайт производителя: Неизвестен
Автор: lena151
Автор перевода:ProstoAndreyX
Продолжительность: 01:00:05
Тип раздаваемого материала: Видеоурок
Язык: Русский
Описание: Перевод знаменитого видеокурса от Lena151,SndTeam.
Переведено:Часть 1 из 40.
Список тем в этом видеокурсе.
01. Olly + assembler + patching a basic reverseme
02. Keyfiling the reverseme + assembler
03. Basic nag removal + header problems
04. Basic + aesthetic patching
05. Comparing on changes in cond jumps, animate over/in, breakpoints
06. "The plain stupid patching method", searching for textstrings
07. Intermediate level patching, Kanal in PEiD
08. Debugging with W32Dasm, RVA, VA and offset, using LordPE as a hexeditor
09. Explaining the Visual Basic concept, introduction to SmartCheck and configuration
10. Continued reversing techniques in VB, use of decompilers and a basic anti-anti-trick
11. Intermediate patching using Olly's "pane window"
12. Guiding a program by multiple patching.
13. The use of API's in software, avoiding doublechecking tricks
14. More difficult schemes and an introduction to inline patching
15. How to study behaviour in the code, continued inlining using a pointer
16. Reversing using resources
17. Insights and practice in basic (self)keygenning
18. Diversion code, encryption/decryption, selfmodifying code and polymorphism
19. Debugger detected and anti-anti-techniques
20. Packers and protectors : an introduction
21. Imports rebuilding
22. API Redirection
23. Stolen bytes
24. Patching at runtime using loaders from lena151 original
25. Continued patching at runtime & unpacking armadillo standard protection
26. Machine specific loaders, unpacking & debugging armadillo
27. tElock + advanced patching
28. Bypassing & killing server checks
29. Killing & inlining a more difficult server check
30. SFX, Run Trace & more advanced string searching
31. Delphi in Olly & DeDe
32. Author tricks, HIEW & approaches in inline patching
33. The FPU, integrity checks & loader versus patcher
34. Reversing techniques in packed software & a S&R loader for ASProtect
35. Inlining inside polymorphic code
36. Keygenning
37. In-depth unpacking & anti-anti-debugging a combination packer / protector
38. Unpacking continued & debugger detection by DLL's and TLS
39. Inlining a blowfish scheme in a packed & CRC protected dll + unpacking Asprotect SKE 2.2
40. Obfuscation and algorithm hiding

Содержание

Туториал по реверсингу для нубов от lena151.Часть 1
Files
Файлы примеров: присутствуют
Формат видео: AVI
Видео:

скрытый текст

Video
ID : 0
Format : MPEG-4 Visual
Format profile : Simple@L1
Format settings, BVOP : Yes
Format settings, QPel : No
Format settings, GMC : No warppoints
Format settings, Matrix : Default (H.263)
Codec ID : XVID
Codec ID/Hint : XviD
Duration : 1h 0mn
Bit rate : 378 Kbps
Width : 1 216 pixels
Height : 804 pixels
Display aspect ratio : 3:2
Frame rate : 30.000 fps
Color space : YUV
Chroma subsampling : 4:2:0
Bit depth : 8 bits
Scan type : Progressive
Compression mode : Lossy
Bits/(Pixel*Frame) : 0.013
Stream size : 162 MiB (65%)
Аудио:

скрытый текст

Audio
ID : 1
Format : MPEG Audio
Format version : Version 1
Format profile : Layer 2
Codec ID : 50
Duration : 1h 0mn
Bit rate mode : Constant
Bit rate : 192 Kbps
Channel(s) : 2 channels
Sampling rate : 48.0 KHz
Compression mode : Lossy
Stream size : 82.5 MiB (33%)
Alignment : Aligned on interleaves
Interleave, duration : 24 ms (0.72 video frame)

Скриншоты




Доп. информация: Перевод сделан с помощью программы Балаболка и звукового движка
Alyona

_________________
Показать сообщения:    

Текущее время: Сегодня 16:41

Часовой пояс: GMT



Вы не можете начинать темы
Вы не можете отвечать на сообщения
Вы не можете редактировать свои сообщения
Вы не можете удалять свои сообщения
Вы не можете голосовать в опросах
Вы не можете прикреплять файлы к сообщениям
Вы не можете скачивать файлы
Наши партнеры: интернет магазин Ивановского трикотажа textilla.ru