Важное объявление!
У Нас Все раздачи мультитрекерные, при нуле пиров в релизах, можете смело вставать на закачку!
 
Автор Сообщение

HUNTER

Стаж:
4 года 4 месяца
Сообщений:
56842

Репутация: 101

[+] [-]
Вне форума [Профиль] [ЛС]

LEGO Супергерои DC: Лига Справедливости – Космическая битва / DC Comics Super Heroes: Justice League - Cosmic Clash
Страна: США
Жанр: Мультипликация
Продолжительность: 01:18:33
Год выпуска: 2016
Перевод: Профессиональный (многоголосый закадровый)
Русские субтитры: нет-Режиссёр: Рик Моралес / Rick Morales
Роли озвучивали: Нолан Норт, Трой Бэйкер, Грэй Гриффин, Кари Уолгрен, Хари Пэйтон, Фил ЛаМарр, Джеймс Арнольд Тейлор, Юрий Ловенталь, Фил Моррис, Джошуа Китон-Описание: На маленькой симпатичной планете со смешным названием Заставикслю жизнь шла своим чередом, пока не произошло нечто странное: планету просканировали красным светом, после чего она сжалась, стала совсем крохотной и была помещена в стеклянную банку. Это сделал разумный робот Мозголом, владелец самой большой базы данных планет. У него уже собрана огромная коллекция, расставленная в алфавитном порядке, и в ней не хватало лишь планеты на букву З. Но произошла оплошность, и капсула с Заставикслю упала, из-за чего сама планета деформировалась. Мозголом недоволен – в его коллекции не может быть испорченных экземпляров. К его удовольствию, существует еще одна планета на З – Земля. И он решает во что бы то ни стало захватить ее. Его планам должна помешать команда лего-супергероев из Лиги Справедливости, в которую входят Бэтмен, Супермен, Чудо-Женщина, Зеленый Фонарь, Флэш и Киборг.-Качество: BDRip 1080p
Формат: MKV
Видео: AVC, 1920x1080 (16:9), 23.976 fps, 6 456 Kbps (0.130 bit/pixel)
Аудио 1: AC-3, 48.0 KHz, 2 ch, 192 Kbps, CBR (Russian)
Аудио 2: DTS, 48.0 KHz, 6 ch, 1 510 Kbps, CBR (English)
Субтитры: English
Семпл: Забираем тут

Подробные технические данные

GeneralUnique ID : 207205568368166586295256580432869973181 (0x9BE25743AD0A4AB7A5667CD4BA03DCBD)Complete name : LEGO DC Comics Super Heroes Justice League Cosmic Clash 2016 BDRip 1080p.mkvFormat : MatroskaFormat version : Version 4 / Version 2File size : 4.48 GiBDuration : 1h 18mnOverall bit rate : 8 159 KbpsEncoded date : UTC 2016-03-09 08:13:50Writing application : mkvmerge v8.8.0 ('Wind at my back') 64bitWriting library : libebml v1.3.3 + libmatroska v1.4.4DURATION : 01:15:15.561000000NUMBER_OF_FRAMES : 1291NUMBER_OF_BYTES : 43490_STATISTICS_WRITING_APP : mkvmerge v8.8.0 ('Wind at my back') 64bit_STATISTICS_WRITING_DATE_UT : 2016-03-09 08:13:50_STATISTICS_TAGS : BPS DURATION NUMBER_OF_FRAMES NUMBER_OF_BYTES
VideoID : 1Format : AVCFormat/Info : Advanced Video CodecFormat profile : High@L4.1Format settings, CABAC : YesFormat settings, ReFrames : 4 framesCodec ID : V_MPEG4/ISO/AVCDuration : 1h 18mnBit rate : 6 456 KbpsWidth : 1 920 pixelsHeight : 1 080 pixelsDisplay aspect ratio : 16:9Frame rate mode : ConstantFrame rate : 23.976 fpsColor space : YUVChroma subsampling : 4:2:0Bit depth : 8 bitsScan type : ProgressiveBits/(Pixel*Frame) : 0.130Stream size : 3.45 GiB (77%)Writing library : x264 core 148 r2665 a01e339Encoding settings : cabac=1 / ref=4 / deblock=1:0:0 / analyse=0x3:0x133 / me=umh / subme=7 / psy=1 / psy_rd=1.00:0.00 / mixed_ref=1 / me_range=16 / chroma_me=1 / trellis=1 / 8x8dct=1 / cqm=0 / deadzone=21,11 / fast_pskip=0 / chroma_qp_offset=-2 / threads=12 / lookahead_threads=2 / sliced_threads=0 / nr=0 / decimate=1 / interlaced=0 / bluray_compat=0 / constrained_intra=0 / bframes=3 / b_pyramid=2 / b_adapt=1 / b_bias=0 / direct=1 / weightb=1 / open_gop=0 / weightp=2 / keyint=250 / keyint_min=23 / scenecut=40 / intra_refresh=0 / rc_lookahead=40 / rc=2pass / mbtree=1 / bitrate=6456 / ratetol=1.0 / qcomp=0.60 / qpmin=0 / qpmax=69 / qpstep=4 / cplxblur=20.0 / qblur=0.5 / ip_ratio=1.40 / aq=1:1.00Language : EnglishDefault : YesForced : NoDURATION : 01:18:32.632000000NUMBER_OF_FRAMES : 112990NUMBER_OF_BYTES : 3803371057_STATISTICS_WRITING_APP : mkvmerge v8.8.0 ('Wind at my back') 64bit_STATISTICS_WRITING_DATE_UT : 2016-03-09 08:13:50_STATISTICS_TAGS : BPS DURATION NUMBER_OF_FRAMES NUMBER_OF_BYTES
Audio #1ID : 2Format : AC-3Format/Info : Audio Coding 3Mode extension : CM (complete main)Format settings, Endianness : BigCodec ID : A_AC3Duration : 1h 18mnBit rate mode : ConstantBit rate : 192 KbpsChannel(s) : 2 channelsChannel positions : Front: L RSampling rate : 48.0 KHzCompression mode : LossyStream size : 108 MiB (2%)Language : RussianDefault : YesForced : No
Audio #2ID : 3Format : DTSFormat/Info : Digital Theater SystemsMode : 16Format settings, Endianness : BigCodec ID : A_DTSDuration : 1h 18mnBit rate mode : ConstantBit rate : 1 509 KbpsChannel(s) : 6 channelsChannel positions : Front: L C R, Side: L R, LFESampling rate : 48.0 KHzBit depth : 24 bitsCompression mode : LossyStream size : 848 MiB (18%)Language : EnglishDefault : NoForced : No
TextID : 4Format : UTF-8Codec ID : S_TEXT/UTF8Codec ID/Info : UTF-8 Plain TextLanguage : EnglishDefault : NoForced : No
Menu00:00:00.000 : en:00:00:00.00000:10:36.302 : en:00:10:36.30200:19:29.835 : en:00:19:29.83500:29:25.097 : en:00:29:25.09700:39:17.021 : en:00:39:17.02100:49:30.759 : en:00:49:30.75900:57:38.080 : en:00:57:38.08001:07:55.488 : en:01:07:55.48801:15:39.952 : en:01:15:39.952

Скриншоты



_________________
Показать сообщения:    

Текущее время: Сегодня 20:17

Часовой пояс: GMT



Вы не можете начинать темы
Вы не можете отвечать на сообщения
Вы не можете редактировать свои сообщения
Вы не можете удалять свои сообщения
Вы не можете голосовать в опросах
Вы не можете прикреплять файлы к сообщениям
Вы не можете скачивать файлы
Наши партнеры: интернет магазин Ивановского трикотажа textilla.ru