Ивановский Торрент трекер
Яндекс.Погода
 

[Цитировать]
HUNTER

-LEGO Супергерои DC: Лига Справедливости - Космическая битва / DC Comics Super Heroes: Justice League - Cosmic Clash-
Страна: США
Жанр: мультфильм, боевик, приключения
Продолжительность: 01:18:32
Год выпуска: 2016
Перевод: Профессиональный (многоголосый закадровый)
Русские субтитры: нет-Режиссёр: Рик Моралес / Rick Morales-Роли озвучивали: Нолан Норт, Трой Бэйкер, Грэй Гриффин, Кари Уолгрен, Хари Пэйтон, Фил ЛаМарр, Джеймс Арнольд Тейлор, Юрий Ловенталь, Фил Моррис, Джошуа Китон и др.-Описание: На маленькой симпатичной планете со смешным названием Заставикслю жизнь шла своим чередом, пока не произошло нечто странное: планету просканировали красным светом, после чего она сжалась, стала совсем крохотной и была помещена в стеклянную банку. Это сделал разумный робот Мозголом, владелец самой большой базы данных планет. У него уже собрана огромная коллекция, расставленная в алфавитном порядке, и в ней не хватало лишь планеты на букву З. Но произошла оплошность, и капсула с Заставикслю упала, из-за чего сама планета деформировалась. Мозголом недоволен – в его коллекции не может быть испорченных экземпляров. К его удовольствию, существует еще одна планета на З – Земля. И он решает во что бы то ни стало захватить ее. Его планам должна помешать команда лего-супергероев из Лиги Справедливости, в которую входят Бэтмен, Супермен, Чудо-Женщина, Зеленый Фонарь, Флэш и Киборг.- -Качество: HDRip
Формат: AVI
Видео: XviD 1908 Кb/s, 720x400
Аудио: AC3 48kHz 2ch 192kbps Rus
Аудио 2: AC3 48kHz 6ch 384kbps Eng
Субтитры: отсутствуют-

Подробные технические данные

GeneralComplete name : D:\Фильмы\Kosmi4eskaya.bitva.Lego.2016.P.HDRip.aviFormat : AVIFormat/Info : Audio Video InterleaveFile size : 1.37 GiBDuration : 1h 18mnOverall bit rate : 2 497 KbpsWriting application : VirtualDubMod 1.5.10.2 (build 2540/release)Writing library : VirtualDubMod build 2540/release
VideoID : 0Format : MPEG-4 VisualFormat profile : Advanced Simple@L5Format settings, BVOP : 2Format settings, QPel : NoFormat settings, GMC : No warppointsFormat settings, Matrix : Default (MPEG)Codec ID : XVIDCodec ID/Hint : XviDDuration : 1h 18mnBit rate : 1 908 KbpsWidth : 720 pixelsHeight : 400 pixelsDisplay aspect ratio : 16:9Frame rate : 23.976 (23976/1000) fpsColor space : YUVChroma subsampling : 4:2:0Bit depth : 8 bitsScan type : ProgressiveCompression mode : LossyBits/(Pixel*Frame) : 0.276Stream size : 1.05 GiB (76%)Writing library : XviD 1.2.1 (UTC 2008-12-04)
Audio #1ID : 1Format : AC-3Format/Info : Audio Coding 3Mode extension : CM (complete main)Format settings, Endianness : BigCodec ID : 2000Duration : 1h 18mnBit rate mode : ConstantBit rate : 192 KbpsChannel(s) : 2 channelsChannel positions : Front: L RSampling rate : 48.0 KHzFrame rate : 31.250 fps (1536 spf)Compression mode : LossyStream size : 108 MiB (8%)Alignment : Split accross interleavesInterleave, duration : 42 ms (1.00 video frame)Interleave, preload duratio : 500 ms
Audio #2ID : 2Format : AC-3Format/Info : Audio Coding 3Mode extension : CM (complete main)Format settings, Endianness : BigCodec ID : 2000Duration : 1h 18mnBit rate mode : ConstantBit rate : 384 KbpsChannel(s) : 6 channelsChannel positions : Front: L C R, Side: L R, LFESampling rate : 48.0 KHzFrame rate : 31.250 fps (1536 spf)Compression mode : LossyStream size : 216 MiB (15%)Alignment : Split accross interleavesInterleave, duration : 42 ms (1.00 video frame)Interleave, preload duratio : 500 ms

-

Скриншоты

-
0 человек читают эту тему: 0 пользователей, 0 скрытых пользователей, 0 гостей

Показать сообщения:    

Текущее время: 23-Авг 20:23

Часовой пояс: UTC - 1


Вы не можете начинать темы
Вы не можете отвечать на сообщения
Вы не можете редактировать свои сообщения
Вы не можете удалять свои сообщения
Вы не можете голосовать в опросах
Вы не можете прикреплять файлы к сообщениям
Вы не можете скачивать файлы

!ВНИМАНИЕ!
Сайт не предоставляет электронные версии произведений, а занимается лишь коллекционированием и каталогизацией ссылок, присылаемых и публикуемых на форуме нашими читателями. Если вы являетесь правообладателем какого-либо представленного материала и не желаете, чтобы ссылка на него находилась в нашем каталоге, свяжитесь с нами, и мы незамедлительно удалим ее. Файлы для обмена на трекере предоставлены пользователями сайта, и администрация не несет ответственности за их содержание. Просьба не заливать файлы, защищенные авторскими правами, а также файлы нелегального содержания!