LEGO супергерои DC: Лига справедливости против Лиги Бизарро / Lego DC Comics Super Heroes: Justice League vs. Bizarro League (Брэндон Виетти / Brandon Vietti) [2015, мультфильм, боевик, комедия, приключе, BDRip] 3 x MVO + Eng + sub (rus, eng) :: Ивановский Торрент трекер
Важное объявление!
У Нас Все раздачи мультитрекерные, при нуле пиров в релизах, можете смело вставать на закачку!
Статистика раздачи
Размер:     |    Зарегистрирован:     |    Скачан:     |   
Нет
 
     
 
 
Автор Сообщение

HUNTER

Стаж:
4 года 11 месяцев
Сообщений:
66112

Репутация: 101

[+] [-]
Вне форума [Профиль] [ЛС]

LEGO супергерои DC: Лига справедливости против Лиги Бизарро
Lego DC Comics Super Heroes: Justice League vs. Bizarro League
Страна: США
Жанр: мультфильм, боевик, комедия, приключения
Продолжительность: 00:48:43
Год выпуска: 2015-Перевод: Профессиональный (Многоголосый закадровый)
Перевод: Любительский (Многоголосый закадровый) DuBDraG ProJECT
Перевод: Любительский (Многоголосый закадровый) RuDub TV
Русские субтитры: есть
Режиссёр: Брэндон Виетти / Brandon Vietti-Роли озвучивали: Дидрих Бадер, Трой Бэйкер, Джон Ди Маджио, Том Кенни, Фил Моррис, Нолан Норт, Хари Пэйтон, Кевин Майкл Ричардсон, Джеймс Арнольд Тейлор, Тони Тодд-Описание: Фантастический мультфильм, где роли главных персонажей играют фигурки мира Лего, расскажет о новой схватке Лиги Справедливости. Они будут противостоять Дарксайду. Этот злодей решил превратить планету Земля в куб. Но Дарксайд так же навредил миру, где проживала Лига Бизарро, в команде которой все герои, являются полной противоположностью Лиги Справедливости.- -- Спасибо РГ RuDub TV за предоставление русской дороги и русских субтитров!
- Работа с BDRemux'ом -Azureus--Качество: BDRip
Формат: AVI
Видео: 704x400 (1.76:1), 23,976 fps, XviD 66 ~2 361 kbps avg, 0.35 bit/pixel
Аудио: 48 kHz, AC3 Dolby Digital, 2/0 (L,R) ch, ~192 kbps |MVO|
Аудио: 48 kHz, AC3 Dolby Digital, 2/0 (L,R) ch, ~192 kbps |DuBDraG ProJECT|
Аудио: 48 kHz, AC3 Dolby Digital, 3/2 (L,C,R,l,r) + LFE ch, ~448 kbps avg |RuDub TV|
Аудио: 48 kHz, AC3 Dolby Digital, 3/2 (L,C,R,l,r) + LFE ch, ~448 kbps avg |ENG| отдельно
Субтитры: Russian, English [srt]

MI


General
Complete name : D:\incarcare\rip gata\Lego DC Comics Super Heroes Justice League vs. Bizarro League.2015.BDRip[dragomire]_rutracker.org\Lego DC Comics Super Heroes Justice League vs. Bizarro League.2015.BDRip[dragomire]_rutracker.org.avi
Format : AVI
Format/Info : Audio Video Interleave
File size : 1.09 GiB
Duration : 48mn 42s
Overall bit rate : 3 212 Kbps
Writing application : VirtualDubMod 1.5.10.2 (build 2540/release)
Writing library : VirtualDubMod build 2540/release
Video
ID : 0
Format : MPEG-4 Visual
Format profile : Advanced Simple@L5
Format settings, BVOP : 1
Format settings, QPel : No
Format settings, GMC : No warppoints
Format settings, Matrix : Custom
Codec ID : XVID
Codec ID/Hint : XviD
Duration : 48mn 42s
Bit rate : 2 361 Kbps
Width : 704 pixels
Height : 400 pixels
Display aspect ratio : 16:9
Frame rate : 23.976 fps
Color space : YUV
Chroma subsampling : 4:2:0
Bit depth : 8 bits
Scan type : Progressive
Compression mode : Lossy
Bits/(Pixel*Frame) : 0.350
Stream size : 823 MiB (74%)
Writing library : XviD 66
Audio #1
ID : 1
Format : AC-3
Format/Info : Audio Coding 3
Mode extension : CM (complete main)
Format settings, Endianness : Big
Codec ID : 2000
Duration : 48mn 42s
Bit rate mode : Constant
Bit rate : 192 Kbps
Channel(s) : 2 channels
Channel positions : Front: L R
Sampling rate : 48.0 KHz
Compression mode : Lossy
Stream size : 66.9 MiB (6%)
Alignment : Split accross interleaves
Interleave, duration : 42 ms (1.00 video frame)
Interleave, preload duratio : 500 ms
Audio #2
ID : 2
Format : AC-3
Format/Info : Audio Coding 3
Mode extension : CM (complete main)
Format settings, Endianness : Big
Codec ID : 2000
Duration : 48mn 42s
Bit rate mode : Constant
Bit rate : 192 Kbps
Channel(s) : 2 channels
Channel positions : Front: L R
Sampling rate : 48.0 KHz
Compression mode : Lossy
Stream size : 66.9 MiB (6%)
Alignment : Split accross interleaves
Interleave, duration : 42 ms (1.00 video frame)
Interleave, preload duratio : 500 ms
Audio #3
ID : 3
Format : AC-3
Format/Info : Audio Coding 3
Mode extension : CM (complete main)
Format settings, Endianness : Big
Codec ID : 2000
Duration : 48mn 42s
Bit rate mode : Constant
Bit rate : 448 Kbps
Channel(s) : 6 channels
Channel positions : Front: L C R, Side: L R, LFE
Sampling rate : 48.0 KHz
Compression mode : Lossy
Stream size : 156 MiB (14%)
Alignment : Split accross interleaves
Interleave, duration : 42 ms (1.00 video frame)
Interleave, preload duratio : 500 ms

Скриншоты


_________________
Показать сообщения:    

Текущее время: Сегодня 19:26

Часовой пояс: GMT



Вы не можете начинать темы
Вы не можете отвечать на сообщения
Вы не можете редактировать свои сообщения
Вы не можете удалять свои сообщения
Вы не можете голосовать в опросах
Вы не можете прикреплять файлы к сообщениям
Вы не можете скачивать файлы