Ивановский Торрент трекер
Яндекс.Погода
 

[Quote]
HUNTER

Легенда о принцессе Белоснежке / Shirayuki Hime no Densetsu / The Legend of Snow White
Страна: Япония, Италия
Жанр: мультфильм, фэнтези
Продолжительность серии: 00:24:00
Год выпуска: 1994
Перевод: Профессиональный (многоголосый закадровый) ОРТ (перевод с франц.)
Русские субтитры: нет
Режиссёр: Кунитоси Окадзима / Kunitoshi Okajima
Роли озвучивали: Stefano Albertini
Розальба Бонджованни
Санте Калоджеро
Donatella Fanfani
Роберта Лоуренти
Кандида Габбинс
Йен Кит
Riccardo Mantani
Описание: Вскоре после смерти жены, Король Конрад решил вступить в повторный
брак ради его собственного ребенка красавицы Белоснежки. Однако, Леди Кристэл,
его вторая жена, была злой женщиной. Оставленная управлять королевством во
время отсутствия мужа, она сразу показала весь свой эгоизм, жестокость и
тщеславие. Брошенная и одинокая, бедная Белоснежка искала утешение в любви
и привязанности у своих друзей: щенка, котенка и белого голубя. К счастью
встреча с красивым дворянином, Принцем Ричардом, оживила жизнь молодой
принцессы... пока принц не вынужден был покинуть королевство Конрада.
Только после отъезда Ричарда, Злая мачеха выгнала девочку из дома.
В уютном домике своих новых друзей-гномов Белоснежка наконец-то снова
почувствовала себя счастливой. Забавные человечки окружили ее своим теплом и
заботой, и каждый новый день приносит приятные сюрпризы и веселые приключения...
http://www.planete-jeunesse.com/fiche-443-la-legende-de-blanche-neige.html
Список серий:
1. Рождение принцессы Une princesse est nee
2. Верная кормилица La fidele nourrice
3. Встреча в весенний день Le prince Richard
4. Грустное свидание Le printemps des adieux
5. Сердце принцессы Le cœur de la princesse
6. Семь гномов Les sept nains
7. Новая семья Une nouvelle famille
8. Волшебные цветы Les fleurs magiques
9. Встреча под звездами Rencontre sous les etoiles
10.Письмо Ришара La lettre de Richard
11. Приключения в замке L'aventure au chateau
12 Тяжелое испытание Une epreuve difficile
13. Зеленая лента Un diable bleu et vert
14. Старинная книга Le vieux livre
15. Состязание Le jeu de piste
16. Бабочки Les papillons
17. Белый кролик Le lapin blanc
18. В ледяной стране Au pays des glaces
19. Новая подруга Une nouvelle amie
20. Принцесса с добрым сердцем Une princesse au grand cœur
21. Познавательное путешествие Le voyage initiatique
Доп. информация: Спасибо manhunt clon за оцифровку VHS
Релиз
СЕМПЛ http://multi-up.com/1284195
Качество: VHSRip
Формат: MPG
Видео: MPEG2 Video 720x576 (4:3) 25fps Bit rate 2 079 kb/s
Аудио: Dolby AC3 48000Hz 2 ch 192kbps
Субтитры: отсутствуют

Подробные технические данные

Легенда о принцессе Белоснежке Shirayuki hime no densetsu\4. Грустное свидание Le printemps des adieux.mpg
Format : MPEG-PS
File size : 394 MiB
Duration : 23 min 47 s
Overall bit rate mode : Variable
Overall bit rate : 2 317 kb/s
Writing library : (dvd5: Oct 19 2015)
Video
ID : 224 (0xE0)
Format : MPEG Video
Format version : Version 2
Format profile : [email protected]
Format settings : CustomMatrix / BVOP
Format settings, BVOP : Yes
Format settings, Matrix : Custom
Format settings, GOP : M=3, N=12
Format settings, picture struc : Frame
Duration : 23 min 47 s
Bit rate mode : Variable
Bit rate : 2 079 kb/s
Maximum bit rate : 4 200 kb/s
Width : 720 pixels
Height : 576 pixels
Display aspect ratio : 4:3
Frame rate : 25.000 FPS
Standard : PAL
Color space : YUV
Chroma subsampling : 4:2:0
Bit depth : 8 bits
Scan type : Interlaced
Scan order : Top Field First
Compression mode : Lossy
Bits/(Pixel*Frame) : 0.200
Time code of first frame : 00:00:00:00
Time code source : Group of pictures header
GOP, Open/Closed : Open
GOP, Open/Closed of first fram : Closed
Stream size : 354 MiB (90%)
Writing library : (dvd5: Oct 19 2015)
Audio
ID : 189 (0xBD)-128 (0x80)
Format : AC-3
Format/Info : Audio Coding 3
Commercial name : Dolby Digital
Muxing mode : DVD-Video
Duration : 23 min 47 s
Bit rate mode : Constant
Bit rate : 192 kb/s
Channel(s) : 2 channels
Channel layout : L R
Sampling rate : 48.0 kHz
Frame rate : 31.250 FPS (1536 SPF)
Compression mode : Lossy
Stream size : 32.7 MiB (8%)
Service kind : Complete Main

Скриншоты

Предыдущие и альтернативные раздачи


Display posts:    

Current time is: 28-Oct 08:53

All times are UTC ± 0


You cannot post new topics in this forum
You cannot reply to topics in this forum
You cannot edit your posts in this forum
You cannot delete your posts in this forum
You cannot vote in polls in this forum
You cannot attach files in this forum
You cannot download files in this forum

!ATTENTION!
The site does not give electronic versions of products, and is engaged only in a collecting and cataloguing of the references sent and published at a forum by our readers. If you are the legal owner of any submitted material and do not wish that the reference to it was in our catalogue, contact us and we shall immediately remove her. Files for an exchange on tracker are given by users of a site, and the administration does not bear the responsibility for their maintenance. The request to not fill in the files protected by copyrights, and also files of the illegal maintenance!