Ивановский Торрент трекер
Яндекс.Погода
 

[Quote]
HUNTER

-
Страна: Китай
Год выпуска: 2019
Жанр: Приключения, Драма , Фэнтези
Тип: Movie
Продолжительность: 1 эп. ~1 час 42 мин.
Режиссер: MTJJ
Студия: --Описание: В современном мире духи и люди стали жить в хрупком равновесии, одним из живущих на свете духов является и главный герой этого произведения. Данная история рассказывает о Ло Сяохэе, которому пришлось покинуть свой родной дом и отправиться в путешествие на поиски нового. За время своего путешествия Ло познакомиться с другими духами и людьми, а также узнает больше о их жизни и почему так важно соблюдать это хрупкое равновесие, сможет познать свою силу и принять судьбоносное для себя решение.-Качество: WEB-DL
Тип релиза: Хардсаб(китайский), без линковки
Формат видео: MKV
Автор рипа: -
Видео: AVC, 1920x812, 10776 kbps, 24fps, 8 bit
Аудио: AAC, 326 kbps, 48 Hz, 2 ch, CHI
Аудио: AAC, 448 kbps, 48 Hz, 6 ch, CHI(int)
Субтитры : ASS, RUS(int)
Субтитры : ASS, ENG(int)-

Подробные тех. данные

Общее
Уникальный идентификатор : 227429170627737361651625109241510723430 (0xAB1943D6A416D72588432235E1FB7F66)
Полное имя : F:\RUTRACKER\One ep\The Legend of Hei.mkv
Формат : Matroska
Версия формата : Version 4
Размер файла : 8,20 Гбайт
Продолжительность : 1 ч. 41 м.
Общий поток : 11,6 Мбит/сек
Дата кодирования : UTC 2020-06-21 10:28:57
Программа кодирования : mkvmerge v43.0.0 ('The Quartermaster') 64-bit
Библиотека кодирования : libebml v1.3.10 + libmatroska v1.5.2
Видео
Идентификатор : 1
Формат : AVC
Формат/Информация : Advanced Video Codec
Профиль формата : [email protected]
Настройки формата : CABAC / 4 Ref Frames
Параметр CABAC формата : Да
Параметр RefFrames формата : 4 кадра
Параметр GOP формата : M=4, N=24
Идентификатор кодека : V_MPEG4/ISO/AVC
Продолжительность : 1 ч. 41 м.
Битрейт : 10,8 Мбит/сек
Ширина : 1920 пикселей
Высота : 812 пикселей
Соотношение сторон : 2,35:1
Режим частоты кадров : Постоянный
Частота кадров : 24,000 кадра/сек
Цветовое пространство : YUV
Субдискретизация насыщенности : 4:2:0
Битовая глубина : 8 бит
Тип развёртки : Прогрессивная
Бит/(Пиксели*Кадры) : 0.288
Размер потока : 7,65 Гбайт (93%)
Default : Да
Forced : Нет
Цветовой диапазон : Limited
Основные цвета : BT.709
Характеристики трансфера : BT.709
Коэффициенты матрицы : BT.709
Аудио #1
Идентификатор : 2
Формат : AAC LC
Формат/Информация : Advanced Audio Codec Low Complexity
Идентификатор кодека : A_AAC-2
Продолжительность : 1 ч. 41 м.
Битрейт : 326 Кбит/сек
Каналы : 2 канала
ChannelLayout : L R
Частота : 48,0 КГц
Частота кадров : 46,875 кадров/сек (1024 SPF)
Метод сжатия : С потерями
Размер потока : 237 Мбайт (3%)
Заголовок : Mandarin
Язык : Chinese
Default : Да
Forced : Нет
Аудио #2
Идентификатор : 3
Формат : E-AC-3 JOC
Формат/Информация : Enhanced AC-3 with Joint Object Coding
Коммерческое название : Dolby Digital Plus with Dolby Atmos
Идентификатор кодека : A_EAC3
Продолжительность : 1 ч. 41 м.
Вид битрейта : Постоянный
Битрейт : 448 Кбит/сек
Каналы : 6 каналов
ChannelLayout : L R C LFE Ls Rs
Частота : 48,0 КГц
Частота кадров : 31,250 кадров/сек (1536 SPF)
Метод сжатия : С потерями
Размер потока : 326 Мбайт (4%)
Заголовок : Mandarin
Язык : Chinese
ServiceKind/String : Complete Main
Default : Нет
Forced : Нет
ComplexityIndex : 16
NumberOfDynamicObjects : 15
BedChannelCount/String : 1 канал
BedChannelConfiguration : LFE
Текст #1
Идентификатор : 4
Формат : ASS
Идентификатор кодека : S_TEXT/ASS
Идентификатор кодека/Информация : Advanced Sub Station Alpha
Продолжительность : 1 ч. 34 м.
Битрейт : 75 бит/сек
ElementCount : 1126
Метод сжатия : Без потерь
Размер потока : 52,8 Кбайт (0%)
Заголовок : English
Язык : English
Default : Нет
Forced : Нет
Текст #2
Идентификатор : 5
Формат : ASS
Идентификатор кодека : S_TEXT/ASS
Идентификатор кодека/Информация : Advanced Sub Station Alpha
Продолжительность : 1 ч. 34 м.
Битрейт : 104 бит/сек
ElementCount : 1126
Метод сжатия : Без потерь
Размер потока : 72,5 Кбайт (0%)
Заголовок : Russian
Язык : Russian
Default : Да
Forced : Нет

Скриншоты



Display posts:    

Current time is: 05-Aug 15:39

All times are UTC ± 0


You cannot post new topics in this forum
You cannot reply to topics in this forum
You cannot edit your posts in this forum
You cannot delete your posts in this forum
You cannot vote in polls in this forum
You cannot attach files in this forum
You cannot download files in this forum

!ATTENTION!
The site does not give electronic versions of products, and is engaged only in a collecting and cataloguing of the references sent and published at a forum by our readers. If you are the legal owner of any submitted material and do not wish that the reference to it was in our catalogue, contact us and we shall immediately remove her. Files for an exchange on tracker are given by users of a site, and the administration does not bear the responsibility for their maintenance. The request to not fill in the files protected by copyrights, and also files of the illegal maintenance!