Важное объявление!
У Нас Все раздачи мультитрекерные, при нуле пиров в релизах, можете смело вставать на закачку!
 
Автор Сообщение

HUNTER

Стаж:
4 года 4 месяца
Сообщений:
56809

Репутация: 101

[+] [-]
Вне форума [Профиль] [ЛС]

| BDRip-AVC, 1.46 GB |- P R E S E N T SКумба / Khumba-
Страна: ЮАР
Жанр: мультфильм, приключения, семейный
Продолжительность: 01:25:18
Год выпуска: 2013
Перевод: Профессиональный (дублированный)
Субтитры: английские (полные и для слабослышащих), испанские (полные)-Режиссёр: Энтони Силверстон / Anthony Silverston
Роли озвучивали: Джейк Т. Остин, Лиам Нисон, Стив Бушеми, Анна-София Робб, Лоренс Фишбёрн, Грег Эллис, Ричард Э. Грант, Кэтрин Тейт, Чарльз Адлер, Ди Брэдли Бейкер, Джефф Беннетт, Мэйсон Чарльз, Дженнифер Коуди, Кэтрин Крессида, Лоретта Дивайн, Девон Грайе, Роджер Л. Джексон, Хуанита Дженнингс...- | | -Описание: Зебра Кумба с самого рождения был посмешищем всего стада из-за того, что родился наполовину полосатым, а наполовину белым. Хуже того, когда началась Великая Засуха, сородичи решили, что он проклят, и в нем причина всех бед. Стадо изгнало Кумбу, и даже отец отвернулся от него! Отважная полуполосатая зебра отправляется в опасные и веселые приключения, чтобы найти недостающие полоски и заслужить уважение семьи...-Доп. информация: BDRip-AVC сделан с комбинированного Blu-Ray диска Кумба / Khumba (2013) Blu-ray 3D Disc [3D/2D] -BLUEBIRD.-Сэмпл/Sample (23.5 MB, 1 минута)-Качество: BDRip-AVC
Формат: MKV
Видео: 1008x420 (2.40:1), 23,976 fps, ~1552 kbps avg, 0.153 bit/pixel
Аудио #1: Русский, AC3, 6 ch, 48 kHz, 448 kbps - Дубляж
Аудио #3: English, AC3, 6 ch, 48 kHz, 448 kbps - Original
Субтитры: English (Full, SDH), Spanish (Full)
Навигация по главам: есть (12 именованных глав)

MediaInfo / x264Log

x264Log

raw [info]: 1008x420p 1:1 @ 24000/1001 fps (cfr)x264 [info]: using SAR=1/1x264 [info]: using cpu capabilities: MMX2 SSE2Fast SSSE3 SSE4.2 AVX XOP FMA4 FMA3 LZCNT BMI1x264 [info]: profile High, level 4.1x264 [info]: frame I:1323 Avg QP:13.86 size: 85081 PSNR Mean Y:48.61 U:51.00 V:51.43 Avg:49.26 Global:48.55x264 [info]: frame P:32467 Avg QP:16.96 size: 14258 PSNR Mean Y:47.07 U:51.34 V:51.91 Avg:47.93 Global:46.99x264 [info]: frame B:88919 Avg QP:19.35 size: 4694 PSNR Mean Y:46.56 U:49.94 V:50.55 Avg:47.39 Global:46.42x264 [info]: consecutive B-frames: 4.4% 5.5% 9.2% 43.9% 14.7% 15.0% 2.7% 1.7% 0.7% 0.6% 0.5% 0.6% 0.5%x264 [info]: mb I I16..4: 3.7% 65.8% 30.5%x264 [info]: mb P I16..4: 0.5% 7.6% 2.4% P16..4: 22.2% 19.5% 10.3% 2.8% 0.4% skip:34.4%x264 [info]: mb B I16..4: 0.1% 1.3% 0.4% B16..8: 21.1% 13.1% 2.6% direct: 3.1% skip:58.1% L0:40.9% L1:41.9% BI:17.2%x264 [info]: 8x8 transform intra:70.3% inter:49.8%x264 [info]: coded y,uvDC,uvAC intra: 83.5% 82.4% 62.4% inter: 12.6% 7.5% 2.1%x264 [info]: i16 v,h,dc,p: 23% 24% 4% 49%x264 [info]: i8 v,h,dc,ddl,ddr,vr,hd,vl,hu: 12% 13% 10% 8% 10% 10% 11% 11% 15%x264 [info]: i4 v,h,dc,ddl,ddr,vr,hd,vl,hu: 31% 9% 8% 6% 10% 9% 9% 7% 9%x264 [info]: i8c dc,h,v,p: 34% 35% 16% 15%x264 [info]: Weighted P-Frames: Y:3.1% UV:2.3%x264 [info]: ref P L0: 52.8% 9.8% 13.5% 6.5% 4.6% 3.6% 3.0% 1.8% 1.4% 1.2% 1.0% 0.8% 0.1% 0.0%x264 [info]: ref B L0: 73.2% 12.0% 5.8% 2.7% 1.9% 1.5% 1.2% 0.7% 0.6% 0.3% 0.2%x264 [info]: ref B L1: 93.0% 7.0%x264 [info]: SSIM Mean Y:0.9899799 (19.991db)x264 [info]: PSNR Mean Y:46.715 U:50.321 V:50.923 Avg:47.554 Global:46.584 kb/s:1551.95encoded 122709 frames, 17.60 fps, 1551.95 kb/s
GeneralUnique ID : 239945705729523910103206405865856267031 (0xB483DCAA02D01C33A0C61D8D22E77317)Complete name : Khumba.2013.BDRip-AVC.420p.dfcbit.mkvFormat : MatroskaFormat version : Version 2File size : 1.46 GiBDuration : 1h 25mnOverall bit rate : 2 450 KbpsEncoded date : UTC 2014-02-19 07:24:49Writing application : mkvmerge v4.0.0 ('The Stars were mine') built on Jun 6 2010 16:18:42Writing library : libebml v1.0.0 + libmatroska v1.0.0
VideoID : 1Format : AVCFormat/Info : Advanced Video CodecFormat profile : High@L4.1Format settings, CABAC : YesFormat settings, ReFrames : 12 framesCodec ID : V_MPEG4/ISO/AVCDuration : 1h 25mnBit rate : 1 552 KbpsWidth : 1 008 pixelsHeight : 420 pixelsDisplay aspect ratio : 2.40:1Frame rate mode : ConstantFrame rate : 23.976 fpsColor space : YUVChroma subsampling : 4:2:0Bit depth : 8 bitsScan type : ProgressiveBits/(Pixel*Frame) : 0.153Stream size : 947 MiB (61%)Title : NTSC, 1008x420 (2.40:1), BDRip-AVC 420p - tRuAVC & Multfilmy [DFCbit]Writing library : x264 core 142 r2389kMod 956c8d8Encoding settings : cabac=1 / ref=12 / deblock=1:-2:-1 / analyse=0x3:0x133 / me=umh / subme=11 / psy=1 / fade_compensate=0.00 / psy_rd=0.63:0.00 / mixed_ref=1 / me_range=32 / chroma_me=1 / trellis=2 / 8x8dct=1 / cqm=0 / deadzone=21,11 / fast_pskip=0 / chroma_qp_offset=-2 / threads=12 / lookahead_threads=3 / sliced_threads=0 / nr=0 / decimate=1 / interlaced=0 / bluray_compat=0 / constrained_intra=0 / fgo=0 / bframes=12 / b_pyramid=2 / b_adapt=2 / b_bias=0 / direct=1 / weightb=1 / open_gop=0 / weightp=2 / keyint=250 / keyint_min=23 / scenecut=40 / intra_refresh=0 / rc_lookahead=70 / rc=2pass / mbtree=0 / bitrate=1552 / ratetol=1.0 / qcomp=0.81 / qpmin=0 / qpmax=69 / qpstep=4 / cplxblur=20.0 / qblur=0.5 / vbv_maxrate=25000 / vbv_bufsize=50000 / nal_hrd=none / filler=0 / ip_ratio=1.40 / pb_ratio=1.30 / aq=3:0.90Language : EnglishDefault : YesForced : NoColor primaries : BT.709Transfer characteristics : BT.709Matrix coefficients : BT.709
Audio #1ID : 2Format : AC-3Format/Info : Audio Coding 3Mode extension : CM (complete main)Format settings, Endianness : BigCodec ID : A_AC3Duration : 1h 25mnBit rate mode : ConstantBit rate : 448 KbpsChannel(s) : 6 channelsChannel positions : Front: L C R, Side: L R, LFESampling rate : 48.0 KHzBit depth : 16 bitsCompression mode : LossyStream size : 273 MiB (18%)Title : AC3, 6 ch, 48 kHz, 448 kbps - ДубляжLanguage : RussianDefault : YesForced : No
Audio #2ID : 3Format : AC-3Format/Info : Audio Coding 3Mode extension : CM (complete main)Format settings, Endianness : BigCodec ID : A_AC3Duration : 1h 25mnBit rate mode : ConstantBit rate : 448 KbpsChannel(s) : 6 channelsChannel positions : Front: L C R, Side: L R, LFESampling rate : 48.0 KHzBit depth : 16 bitsCompression mode : LossyStream size : 273 MiB (18%)Title : AC3, 6 ch, 48 kHz, 448 kbps - OriginalLanguage : EnglishDefault : NoForced : No
Text #1ID : 4Format : UTF-8Codec ID : S_TEXT/UTF8Codec ID/Info : UTF-8 Plain TextTitle : SRT, FullLanguage : EnglishDefault : NoForced : No
Text #2ID : 5Format : UTF-8Codec ID : S_TEXT/UTF8Codec ID/Info : UTF-8 Plain TextTitle : SRT, (SDH)Language : EnglishDefault : NoForced : No
Text #3ID : 6Format : UTF-8Codec ID : S_TEXT/UTF8Codec ID/Info : UTF-8 Plain TextTitle : SRT, FullLanguage : SpanishDefault : NoForced : No
Menu00:00:00.000 : en:1. Khumba00:07:02.881 : en:2. Things Are Different00:14:33.623 : en:3. The Same Skin00:24:04.485 : en:4. Phango00:30:51.933 : en:5. Momma V and Bradley00:38:02.489 : en:6. Teamwork00:45:18.507 : en:7. New Friends00:50:56.345 : en:8. Don't Look Back00:55:26.865 : en:9. Into the Wild01:00:10.857 : en:10. Phango's Trap01:09:02.305 : en:11. At Last01:19:12.790 : en:12. Ending Credits

Скриншоты

Скриншот с названием мультфильма
--BDRip-AVC


Source Blu-Ray

Релиз от групп | and | -Данный релиз не будет воспроизводиться на бытовых плеерах не поддерживающих MKV и H.264Обсуждение релизов в AVC формате || Свежие AVC рипы

_________________
Показать сообщения:    

Текущее время: Сегодня 16:41

Часовой пояс: GMT



Вы не можете начинать темы
Вы не можете отвечать на сообщения
Вы не можете редактировать свои сообщения
Вы не можете удалять свои сообщения
Вы не можете голосовать в опросах
Вы не можете прикреплять файлы к сообщениям
Вы не можете скачивать файлы