Важное объявление!
У Нас Все раздачи мультитрекерные, при нуле пиров в релизах, можете смело вставать на закачку!
Статистика раздачи
Размер:     |    Зарегистрирован:     |    Скачан:     |   
Нет
 
     
 
 
Автор Сообщение

HUNTER

Стаж:
5 лет
Сообщений:
67935

Репутация: 101

[+] [-]
Вне форума [Профиль] [ЛС]

| BDRip 720p, 2.81 GB |- P R E S E N T SКумба / Khumba-
Страна: ЮАР
Жанр: мультфильм, приключения, семейный
Продолжительность: 01:25:18
Год выпуска: 2013
Перевод: Профессиональный (дублированный)
Субтитры: английские (полные и для слабослышащих), испанские (полные)-Режиссёр: Энтони Силверстон / Anthony Silverston
Роли озвучивали: Джейк Т. Остин, Лиам Нисон, Стив Бушеми, Анна-София Робб, Лоренс Фишбёрн, Грег Эллис, Ричард Э. Грант, Кэтрин Тейт, Чарльз Адлер, Ди Брэдли Бейкер, Джефф Беннетт, Мэйсон Чарльз, Дженнифер Коуди, Кэтрин Крессида, Лоретта Дивайн, Девон Грайе, Роджер Л. Джексон, Хуанита Дженнингс...- | | -Описание: Зебра Кумба с самого рождения был посмешищем всего стада из-за того, что родился наполовину полосатым, а наполовину белым. Хуже того, когда началась Великая Засуха, сородичи решили, что он проклят, и в нем причина всех бед. Стадо изгнало Кумбу, и даже отец отвернулся от него! Отважная полуполосатая зебра отправляется в опасные и веселые приключения, чтобы найти недостающие полоски и заслужить уважение семьи...-Доп. информация: BDRip 720p сделан с комбинированного Blu-Ray диска Кумба / Khumba (2013) Blu-ray 3D Disc [3D/2D] -BLUEBIRD.-Сэмпл/Sample (43.8 MB, 1 минута)-Качество: BDRip 720p
Формат: MKV
Видео: 1280x534 (2.40:1), 23,976 fps, ~3618 kbps avg, 0.221 bit/pixel
Аудио #1: Русский, AC3, 6 ch, 48 kHz, 448 kbps - Дубляж
Аудио #3: English, AC3, 6 ch, 48 kHz, 640 kbps - Original
Субтитры: English (Full, SDH), Spanish (Full)
Навигация по главам: есть (12 именованных глав)

MediaInfo / x264Log

x264Log

raw [info]: 1280x534p 1:1 @ 24000/1001 fps (cfr)x264 [info]: using SAR=1/1x264 [info]: using cpu capabilities: MMX2 SSE2Fast SSSE3 SSE4.2 AVX XOP FMA4 FMA3 LZCNT BMI1x264 [info]: profile High, level 4.1x264 [info]: frame I:1310 Avg QP:11.37 size:156179 PSNR Mean Y:50.64 U:53.07 V:53.42 Avg:51.30 Global:50.72x264 [info]: frame P:30774 Avg QP:12.86 size: 34355 PSNR Mean Y:48.91 U:52.37 V:52.81 Avg:49.71 Global:48.92x264 [info]: frame B:90625 Avg QP:15.33 size: 11617 PSNR Mean Y:48.20 U:51.87 V:52.34 Avg:49.07 Global:48.29x264 [info]: consecutive B-frames: 2.9% 5.2% 8.1% 45.3% 15.2% 16.8% 2.4% 1.4% 0.6% 0.7% 0.5% 0.4% 0.3%x264 [info]: mb I I16..4: 4.4% 65.8% 29.8%x264 [info]: mb P I16..4: 0.6% 11.2% 2.6% P16..4: 21.4% 20.4% 13.9% 4.0% 0.7% skip:25.2%x264 [info]: mb B I16..4: 0.2% 2.1% 0.4% B16..8: 21.4% 16.9% 4.0% direct: 5.4% skip:49.6% L0:41.6% L1:39.9% BI:18.5%x264 [info]: 8x8 transform intra:75.6% inter:42.0%x264 [info]: coded y,uvDC,uvAC intra: 88.0% 88.4% 78.0% inter: 18.9% 12.9% 5.0%x264 [info]: i16 v,h,dc,p: 39% 19% 7% 36%x264 [info]: i8 v,h,dc,ddl,ddr,vr,hd,vl,hu: 14% 15% 13% 8% 9% 9% 10% 10% 13%x264 [info]: i4 v,h,dc,ddl,ddr,vr,hd,vl,hu: 16% 11% 13% 7% 12% 10% 11% 8% 11%x264 [info]: i8c dc,h,v,p: 40% 31% 16% 13%x264 [info]: Weighted P-Frames: Y:3.1% UV:2.5%x264 [info]: ref P L0: 54.0% 9.9% 13.0% 6.5% 4.8% 3.8% 3.2% 1.9% 1.5% 1.2% 0.1% 0.0%x264 [info]: ref B L0: 71.5% 13.0% 6.0% 3.2% 2.3% 1.7% 1.4% 0.6% 0.3%x264 [info]: ref B L1: 92.9% 7.1%x264 [info]: SSIM Mean Y:0.9921529 (21.053db)x264 [info]: PSNR Mean Y:48.406 U:52.010 V:52.471 Avg:49.252 Global:48.457 kb/s:3618.06encoded 122709 frames, 10.49 fps, 3618.06 kb/s
GeneralUnique ID : 193600979341732279330519547192989432509 (0x91A6313D0B0829D590149D92E577BABD)Complete name : Khumba.2013.BDRip.720p.dfcbit.mkvFormat : MatroskaFormat version : Version 2File size : 2.81 GiBDuration : 1h 25mnOverall bit rate : 4 708 KbpsEncoded date : UTC 2014-02-20 05:11:05Writing application : mkvmerge v4.0.0 ('The Stars were mine') built on Jun 6 2010 16:18:42Writing library : libebml v1.0.0 + libmatroska v1.0.0
VideoID : 1Format : AVCFormat/Info : Advanced Video CodecFormat profile : High@L4.1Format settings, CABAC : YesFormat settings, ReFrames : 10 framesCodec ID : V_MPEG4/ISO/AVCDuration : 1h 25mnBit rate : 3 618 KbpsWidth : 1 280 pixelsHeight : 534 pixelsDisplay aspect ratio : 2.40:1Frame rate mode : ConstantFrame rate : 23.976 fpsColor space : YUVChroma subsampling : 4:2:0Bit depth : 8 bitsScan type : ProgressiveBits/(Pixel*Frame) : 0.221Stream size : 2.16 GiB (75%)Title : NTSC, 1280x534 (2.40:1), BDRip 720p - tRuAVC & Multfilmy [DFCbit]Writing library : x264 core 142 r2389kMod 956c8d8Encoding settings : cabac=1 / ref=10 / deblock=1:-3:-2 / analyse=0x3:0x133 / me=umh / subme=11 / psy=1 / fade_compensate=0.00 / psy_rd=0.63:0.00 / mixed_ref=1 / me_range=32 / chroma_me=1 / trellis=2 / 8x8dct=1 / cqm=0 / deadzone=21,11 / fast_pskip=0 / chroma_qp_offset=-2 / threads=12 / lookahead_threads=3 / sliced_threads=0 / nr=0 / decimate=1 / interlaced=0 / bluray_compat=0 / constrained_intra=0 / fgo=0 / bframes=12 / b_pyramid=2 / b_adapt=2 / b_bias=0 / direct=1 / weightb=1 / open_gop=0 / weightp=2 / keyint=250 / keyint_min=23 / scenecut=40 / intra_refresh=0 / rc_lookahead=70 / rc=2pass / mbtree=0 / bitrate=3618 / ratetol=1.0 / qcomp=0.81 / qpmin=0 / qpmax=69 / qpstep=4 / cplxblur=20.0 / qblur=0.5 / vbv_maxrate=50000 / vbv_bufsize=62500 / nal_hrd=none / filler=0 / ip_ratio=1.40 / pb_ratio=1.30 / aq=3:0.90Language : EnglishDefault : YesForced : NoColor primaries : BT.709Transfer characteristics : BT.709Matrix coefficients : BT.709
Audio #1ID : 2Format : AC-3Format/Info : Audio Coding 3Mode extension : CM (complete main)Format settings, Endianness : BigCodec ID : A_AC3Duration : 1h 25mnBit rate mode : ConstantBit rate : 448 KbpsChannel(s) : 6 channelsChannel positions : Front: L C R, Side: L R, LFESampling rate : 48.0 KHzBit depth : 16 bitsCompression mode : LossyStream size : 273 MiB (10%)Title : AC3, 6 ch, 48 kHz, 448 kbps - ДубляжLanguage : RussianDefault : YesForced : No
Audio #2ID : 3Format : AC-3Format/Info : Audio Coding 3Mode extension : CM (complete main)Format settings, Endianness : BigCodec ID : A_AC3Duration : 1h 25mnBit rate mode : ConstantBit rate : 640 KbpsChannel(s) : 6 channelsChannel positions : Front: L C R, Side: L R, LFESampling rate : 48.0 KHzBit depth : 16 bitsCompression mode : LossyStream size : 390 MiB (14%)Title : AC3, 6 ch, 48 kHz, 640 kbps - OriginalLanguage : EnglishDefault : NoForced : No
Text #1ID : 4Format : UTF-8Codec ID : S_TEXT/UTF8Codec ID/Info : UTF-8 Plain TextTitle : SRT, FullLanguage : EnglishDefault : NoForced : No
Text #2ID : 5Format : UTF-8Codec ID : S_TEXT/UTF8Codec ID/Info : UTF-8 Plain TextTitle : SRT, (SDH)Language : EnglishDefault : NoForced : No
Text #3ID : 6Format : UTF-8Codec ID : S_TEXT/UTF8Codec ID/Info : UTF-8 Plain TextTitle : SRT, FullLanguage : SpanishDefault : NoForced : No
Menu00:00:00.000 : en:1. Khumba00:07:02.881 : en:2. Things Are Different00:14:33.623 : en:3. The Same Skin00:24:04.485 : en:4. Phango00:30:51.933 : en:5. Momma V and Bradley00:38:02.489 : en:6. Teamwork00:45:18.507 : en:7. New Friends00:50:56.345 : en:8. Don't Look Back00:55:26.865 : en:9. Into the Wild01:00:10.857 : en:10. Phango's Trap01:09:02.305 : en:11. At Last01:19:12.790 : en:12. Ending Credits

Скриншоты

Скриншот с названием мультфильма
--BDRip 720p


Source Blu-Ray

Релиз от групп | and | -Данный релиз не будет воспроизводиться на бытовых плеерах не поддерживающих MKV и H.264Обсуждение релизов в AVC формате || Свежие AVC рипы

_________________
Показать сообщения:    

Текущее время: Сегодня 22:54

Часовой пояс: GMT



Вы не можете начинать темы
Вы не можете отвечать на сообщения
Вы не можете редактировать свои сообщения
Вы не можете удалять свои сообщения
Вы не можете голосовать в опросах
Вы не можете прикреплять файлы к сообщениям
Вы не можете скачивать файлы