Ивановский Торрент трекер
Яндекс.Погода
DL-List and Torrent activity
None
 
     
 
style="text-align: center"
 

[Quote]
HUNTER

Кунг-фу Панда 3 / Kung Fu Panda 3
Страна: США, Китай
Жанр: мультфильм, боевик, комедия
Год выпуска: 2016
Продолжительность: 01:34:54
Перевод: Авторский (одноголосый закадровый) Юрий Живов
Субтитры: нет
Режиссёр: Алессандро Карлони / Alessandro Carloni, Дженнифер Ю / Jennifer Yuh Nelson
Роли озвучивали: Джек Блэк, Брайан Крэнстон, Дастин Хоффман, Анджелина Джоли, Дж.К. Симмонс, Джеки Чан, Сет Роген, Люси Лью, Дэвид Кросс
Описание: Когда мастер Шифу почувствовал свою старость, он решил отойти от дел и выбрать нового учителя кунг-фу. Им должен стать наш любимый герой, панда По. Но совсем скоро По понимает, что быть мастером кунг-фу – очень сложная задача. По пытается руководить действиями легендарной пятерки, но ничего хорошего не получается. Панда уже готов отказаться от этой должности, но мастер Шифу верит в него, как верил когда-то мастер Угвей. Именно в этот сложный и ответственный момент По встречает своего отца – панду Ли Шан. Вместе они отправляются домой, в райский уголок, где тысячи панд обитают все вместе. По чувствует себя счастливым в окружении семьи, которую он так долго искал. Но новость о погромах, которые устроил Кай вместе со своими единомышленниками, заставляет По на некоторое время забыть о своем счастье и вновь показать кунг-фу самого высшего уровня. Но одному ему не справиться, поэтому По начинает тренировать всех панд. Сумеет ли войско панд противостоять армии Кая, самого жестокого и беспощадного злодея во всем Китае..?
Семпл: https://yadi.sk/i/Uzg__YLy3Rchxi
Качество: BDRip (Исходник Blu-ray disc 1080p)
Формат: AVI
Видео: XviD 73, 720x304, (2,35:1), 23,976 fps, 1749 Кбит/с, 8 бит, 0.33 bit/pixel
Аудио: Русский (АС3, 6 ch (Front: L C R, Side: L R, LFE), 48,0 KHz, 448 Kbps)

MediaInfo

Общее
Полное имя : H:\Фильмы на трекер\Кунг-фу Панда 3 (мультфильм, комедия, приключения 2016 год).avi
Формат : AVI
Формат/Информация : Audio Video Interleave
Размер файла : 1,46 Гбайт
Продолжительность : 1 ч. 34 м.
Общий поток : 2207 Кбит/сек
Программа кодирования : VirtualDubMod 1.5.10.3 | www.virtualdub-fr.org || (build 2550/release)
Библиотека кодирования : VirtualDubMod build 2550/release
Видео
Идентификатор : 0
Формат : MPEG-4 Visual
Профиль формата : Advanced Simple@L5
Параметр BVOP формата : 2
Параметр QPel формата : Нет
Параметр GMC формата : Без точки перехода
Параметр матрицы формата : Выборочная
Идентификатор кодека : XVID
Идентификатор кодека/Подсказка : XviD
Продолжительность : 1 ч. 34 м.
Битрейт : 1749 Кбит/сек
Ширина : 720 пикселей
Высота : 304 пикселя
Соотношение сторон : 2,35:1
Частота кадров : 23,976 (23976/1000) кадра/сек
Цветовое пространство : YUV
Субдискретизация насыщенности : 4:2:0
Битовая глубина : 8 бит
Тип развёртки : Прогрессивная
Метод сжатия : С потерями
Бит/(Пиксели*Кадры) : 0.333
Размер потока : 1,16 Гбайт (79%)
Библиотека кодирования : XviD 73
Аудио
Идентификатор : 1
Формат : AC-3
Формат/Информация : Audio Coding 3
Расширение режима : CM (complete main)
Параметр Endianness формата : Big
Идентификатор кодека : 2000
Продолжительность : 1 ч. 34 м.
Вид битрейта : Постоянный
Битрейт : 448 Кбит/сек
Каналы : 6 каналов
Расположение каналов : Front: L C R, Side: L R, LFE
Частота : 48,0 КГц
Частота кадров : 31,250 кадров/сек (1536 spf)
Метод сжатия : С потерями
Размер потока : 304 Мбайт (20%)
Выравнивание : Разделение по промежуткам
Продолжительность промежутка : 42 мс. (1,00 видеокадр)
Время предзагрузки промежутка : 500 мс.

Скриншот c названием фильма

Скриншоты



Display posts:    

Current time is: 26-Aug 05:51

All times are UTC ± 0


You cannot post new topics in this forum
You cannot reply to topics in this forum
You cannot edit your posts in this forum
You cannot delete your posts in this forum
You cannot vote in polls in this forum
You cannot attach files in this forum
You cannot download files in this forum

!ATTENTION!
The site does not give electronic versions of products, and is engaged only in a collecting and cataloguing of the references sent and published at a forum by our readers. If you are the legal owner of any submitted material and do not wish that the reference to it was in our catalogue, contact us and we shall immediately remove her. Files for an exchange on tracker are given by users of a site, and the administration does not bear the responsibility for their maintenance. The request to not fill in the files protected by copyrights, and also files of the illegal maintenance!