Ивановский Торрент трекер
Яндекс.Погода
DL-List and Torrent activity
None
 
     
 
style="text-align: center"
 

[Quote]
HUNTER

Кукарача Жанр: мультфильм / комедия
Год выпуска: 2011
Продолжительность: 01:11:09
Русские субтитры: нет
Режиссёр: Армен Адилханян
В ролях:
Велимир Русаков, Владимир Епифанцев, Антон Масленников, Юрий Стоянов, Александр Гордон, Александр Носков, Василиса Воронина, Юрий Меншагин, Марина Бакина, Виктор Бакин и др.
Описание:
Они жили в большом доме в центре города, в процессоре компьютера… Прикольная компания таракашек и мышонок Хвост. Вели умные разговоры о жизни, играли в футбол, устраивали гонки на игрушечных машинках и все время думали: что бы такое съесть да как бы отбиться от жуков-носорогов и не попасть на обед обжоры-кота и хищников-голубей. А однажды еще и любовь нагрянула, нежданно негаданно! Проблем прибавилось. Как добиться взаимности в любви, находясь на низшей ступени пищевой пирамиды?!
Доп. информация:
Дата мировой премьеры: 24 марта 2011
Дата российской премьеры: 24 марта 2011
Дата выхода DVD/Blu-Ray релиза: 28 апреля 2011 / 19 мая 2011, «Парадиз Видео»

Качество видео: DVD5
Формат видео: DVD-Video
Видео: PAL 16:9 (720x576) VBR
Аудио: Русский, AC3, 2/0 (L,R) ch, 192 kbps
Субтитры: отсутствуют

MediaInfo

Общее
Полное имя : Q:\Кукарача.(2011).(2xDVD).[2D&3D]\DVD1_2D\VIDEO_TS\VTS_01_1.VOB
Формат : MPEG-PS
Размер файла : 1024 Мбайт
Продолжительность : 17 м.
Общий поток : 8000 Кбит/сек
Видео
Идентификатор : 224 (0xE0)
Формат : MPEG Video
Версия формата : Version 2
Профиль формата : Main@Main
Параметр BVOP формата : Да
Параметр матрицы формата : По умолчанию
Продолжительность : 17 м.
Вид битрейта : Постоянный
Битрейт : 7648 Кбит/сек
Номинальный битрейт : 6000 Кбит/сек
Ширина : 720 пикс.
Высота : 576 пикс.
Соотношение сторон : 16:9
Частота кадров : 25,000 кадр/сек
Стандарт вещания : PAL
Цветовое пространство : YUV
Подвыборка цветности : 4:2:0
Битовая глубина : 8 бит
Тип развёртки : Чересстрочная
Порядок развёртки : Нижнее поле первое
Метод сжатия : С потерями
Бит/(Пиксели*Кадры) : 0.738
Размер потока : 979 Мбайт (96%)
Аудио
Идентификатор : 189 (0xBD)-128 (0x80)
Формат : AC-3
Формат/Информация : Audio Coding 3
Расширение режима : CM (complete main)
Режим смешивания : DVD-Video
Продолжительность : 17 м.
Вид битрейта : Постоянный
Битрейт : 192 Кбит/сек
Канал(ы) : 2 канала(ов)
Расположение каналов : Front: L R
Частота : 48,0 КГц
Битовая глубина : 16 бит
Метод сжатия : С потерями
Размер потока : 24,6 Мбайт (2%)
Меню

DVDInfo…

Title: DVD1_2D
Size: 3.96 Gb ( 4 155 686,00 KBytes ) - DVD-5
Enabled regions: 1, 2, 3, 4, 5, 6, 7, 8
VTS_01 :
Play Length: 00:00:01+01:11:09+00:00:01
Video: PAL 16:9 (720x576) VBR, Auto Letterboxed
Audio:
Russian, AC3, 2/0 (L,R) ch, 192 kbps, Delay 0 mSec
VTS_02 :
Play Length: 00:00:01+00:00:11+00:00:01
Video: PAL 16:9 (720x576) VBR, Auto Letterboxed
Audio:
Russian, AC3, 2/0 (L,R) ch, 192 kbps, Delay 0 mSec

Скриншот меню

Скриншоты



Display posts:    

Current time is: 20-Aug 05:01

All times are UTC ± 0


You cannot post new topics in this forum
You cannot reply to topics in this forum
You cannot edit your posts in this forum
You cannot delete your posts in this forum
You cannot vote in polls in this forum
You cannot attach files in this forum
You cannot download files in this forum

!ATTENTION!
The site does not give electronic versions of products, and is engaged only in a collecting and cataloguing of the references sent and published at a forum by our readers. If you are the legal owner of any submitted material and do not wish that the reference to it was in our catalogue, contact us and we shall immediately remove her. Files for an exchange on tracker are given by users of a site, and the administration does not bear the responsibility for their maintenance. The request to not fill in the files protected by copyrights, and also files of the illegal maintenance!