Ивановский Торрент трекер
Яндекс.Погода
 

[Quote]
HUNTER

Крысиные похороны / Похороны крыс / Burial of the Rats / R-Rated
Страна: США, Россия
Студия: Concorde-New Horizons, Мосфильм
Жанр: фэнтези, приключения, sexploitation
Год выпуска: 1995
Продолжительность: 01:16:51
Перевод: Авторский (одноголосый закадровый) Володарский
Перевод 2: Профессиональный (многоголосый закадровый)
Cубтитры: нет
Оригинальная аудиодорожка: английский
Режиссер: Дэн Голден / Dan Golden
В ролях: Адриенн Барбо, Ольга Кабо, Мария Форд, Кевин Альбер, Линней Куигли
Описание: Картина повествует о молодом Брэме Стокере и его отце, на которых нападают бандиты во время их путешествия. Молодой Брэм убивает одного нападавшего, но другие захватывают его в плен. Отец требует у властей начать поиски сына, несмотря на мягкий «совет» возвращаться домой и навсегда забыть о Брэме. Тот попадает в руки женщинам, поклоняющимся культу крыс! Брэм влюбляется в очаровательную королеву крыс и становится свидетелем их смертельных рейдов по монастырям и публичным домам…
Фильм представляет собой нечто среднее между мягким лесбийским порнофильмом и низкобюджетным вампирским ужастиком. Беспричинные эротические стриптиз-танцы, бессмысленное насилие, пытки в подвале и много-много крыс, превращающих в одно мгновение труп в обглоданный скелет. Картина снималась для телевидения на киностудии «Мосфильм» в декорациях, построенных для другой картины Роджера Кормана «Симфония призраков», в которой появлялся призрак композитора, написавшего «дьявольскую» симфонию, и за это казненного. А первоначально эти декорации, изображавшие французский город 19 столетия использовались для российской картины. Адриенн Барбо ненавидит этот фильм.
Доп. информация: Русская звуковая дорожка Воодарского взята из моей личной коллекции.
Многоголоска взята от сюда http://rutracker.org/forum/viewtopic.php?t=4510549 автору большое спасибо.
Синхронизация дорожки Володарского *Sergeant_am* огромное спасибо.
При пересборе двд были использованы программы:
BeSweet в связке с BeLight – распаковка звука в формат WAV
Sony Vegas – кодирование в AC3
PgcDemux - разделение компонентов диска на файлы
Muxman - мультиплексирование и авторинг DVD
VobBlanker - реавторинг DVD

Скрин завершения проекта

Бонусы: Трейлеры.
Сэмпл: http://sendfile.su/1104748
Тип релиза: DVD5 (Custom)
Контейнер: DVD-Video
Видео: NTSC 4:3 (720x480) VBR
Аудио: Russian (Dolby AC3, 192 Кбит/сек, 2 ch)
Аудио 2: Russian (Dolby AC3, 192 Кбит/сек. 2 ch)
Аудио 3: English (Dolby AC3, 192 Кбит/сек. 2 ch)

DVDInfo

Size: 4.08 Gb ( 4 277 298 KBytes ) - DVD-5
Enabled regions: 1, 2, 3, 4, 5, 6, 7, 8
VTS_01 :
Play Length: 01:16:51
Video: NTSC 4:3 (720x480) VBR
Audio:
Russian (Dolby AC3, 2 ch)
Russian (Dolby AC3, 2 ch)
English (Dolby AC3, 2 ch)
VTS_02 :
Play Length: 00:01:10
Video: NTSC 4:3 (720x480) VBR
Audio:
English (Dolby AC3, 2 ch)
VTS_03 :
Play Length: 00:01:43
Video: NTSC 4:3 (720x480) VBR
Audio:
English (Dolby AC3, 2 ch)
VTS_04 :
Play Length: 00:01:22
Video: NTSC 4:3 (720x480) VBR
Audio:
English (Dolby AC3, 2 ch)
VTS_05 :
Play Length: 00:01:41
Video: NTSC 4:3 (720x480) VBR
Audio:
English (Dolby AC3, 2 ch)
Menu Video:
NTSC 4:3 (720x480) VBR
Menu Audio:
Not specified (Dolby AC3, 2 ch)
Menu Subtitles:
Not specified
Menu English Language Unit :
Root Menu

MediaInfo

Общее
Полное имя : M:\Burial of the Rats_1995\VIDEO_TS\VTS_01_1.VOB
Формат : MPEG-PS
Размер файла : 1024 Мбайт
Продолжительность : 20 м.
Режим общего битрейта : Переменный
Общий поток : 7127 Кбит/сек
Видео
Идентификатор : 224 (0xE0)
Формат : MPEG Video
Версия формата : Version 2
Профиль формата : [email protected]
Параметр BVOP формата : Да
Параметр матрицы формата : По умолчанию
Параметр GOP формата : M=3, N=13
Продолжительность : 20 м.
Вид битрейта : Переменный
Битрейт : 6409 Кбит/сек
Максимальный битрейт : 8500 Кбит/сек
Ширина : 720 пикселей
Высота : 480 пикселей
Соотношение сторон : 4:3
Частота кадров : 23,976 кадра/сек
Стандарт вещания : NTSC
Цветовое пространство : YUV
Субдискретизация насыщенности : 4:2:0
Битовая глубина : 8 бит
Тип развёртки : Прогрессивная
Порядок развёртки : 2:3 Pulldown
Метод сжатия : С потерями
Бит/(Пиксели*Кадры) : 0.773
Размер потока : 921 Мбайт (90%)
Основные цвета : BT.601 NTSC
Характеристики трансфера : BT.601
Коэффициенты матрицы : BT.601
Аудио #1
Идентификатор : 189 (0xBD)-128 (0x80)
Формат : AC-3
Формат/Информация : Audio Coding 3
Расширение режима : CM (complete main)
Параметр Endianness формата : Big
Режим смешивания : DVD-Video
Продолжительность : 20 м.
Вид битрейта : Постоянный
Битрейт : 192 Кбит/сек
Каналы : 2 канала
Расположение каналов : Front: L R
Частота : 48,0 КГц
Битовая глубина : 16 бит
Метод сжатия : С потерями
Размер потока : 27,6 Мбайт (3%)
Аудио #2
Идентификатор : 189 (0xBD)-129 (0x81)
Формат : AC-3
Формат/Информация : Audio Coding 3
Расширение режима : CM (complete main)
Параметр Endianness формата : Big
Режим смешивания : DVD-Video
Продолжительность : 20 м.
Вид битрейта : Постоянный
Битрейт : 192 Кбит/сек
Каналы : 2 канала
Расположение каналов : Front: L R
Частота : 48,0 КГц
Битовая глубина : 16 бит
Метод сжатия : С потерями
Размер потока : 27,6 Мбайт (3%)
Аудио #3
Идентификатор : 189 (0xBD)-130 (0x82)
Формат : AC-3
Формат/Информация : Audio Coding 3
Расширение режима : CM (complete main)
Параметр Endianness формата : Big
Режим смешивания : DVD-Video
Продолжительность : 20 м.
Вид битрейта : Постоянный
Битрейт : 192 Кбит/сек
Каналы : 2 канала
Расположение каналов : Front: L R
Частота : 48,0 КГц
Битовая глубина : 16 бит
Метод сжатия : С потерями
Размер потока : 27,6 Мбайт (3%)
Меню

Постеры и обложка

Скриншоты меню



Display posts:    

Current time is: 04-Jun 04:03

All times are UTC ± 0


You cannot post new topics in this forum
You cannot reply to topics in this forum
You cannot edit your posts in this forum
You cannot delete your posts in this forum
You cannot vote in polls in this forum
You cannot attach files in this forum
You cannot download files in this forum

!ATTENTION!
The site does not give electronic versions of products, and is engaged only in a collecting and cataloguing of the references sent and published at a forum by our readers. If you are the legal owner of any submitted material and do not wish that the reference to it was in our catalogue, contact us and we shall immediately remove her. Files for an exchange on tracker are given by users of a site, and the administration does not bear the responsibility for their maintenance. The request to not fill in the files protected by copyrights, and also files of the illegal maintenance!