Ивановский Торрент трекер
Яндекс.Погода
DL-List and Torrent activity
None
 
     
 
 

[Quote]
HUNTER

Кровавая императрица / Распутная императрица / The Scarlet Empress
Страна: США
Жанр: драма
Год выпуска: 1934
Продолжительность: 01:45:00
Перевод 1: Профессиональный (многоголосый закадровый) - Фильм Престиж
Перевод 2: Профессиональный (двухголосый закадровый) - СВ Дубль
Перевод 3: Субтитры - Фильм Престиж
Субтитры: русские, английские
Оригинальная аудиодорожка: английский
Режиссер: Джозеф фон Штернберг / Josef von Sternberg
В ролях: Марлен Дитрих, Джон Лодж, Сэм Жаффэ, Луиза Дрессер, Гэвин Гордон, Эрвилл Алдерсон, Филипп Слиман
Описание: В 1934 году Джозеф фон Штернберг снял свой лучший, по оценкам многих, американский фильм с участием Марлен Дитрих (1901-1978). Это была роскошная костюмная мелодрама об Анхальт-Цербтской принцессе, будущей российской самодержице Екатериной Великой. Роль была сыграна уже набравшейся опыта и осознавшей свое экранное могущество Дитрих как по нотам: от наивной провинциальной девочки до упоенной властью сластолюбивой авантюристки…
1 win
Доп. информация: К WEB-DL 1080p, скаченному с забугорного трекера, добавлена русская звуковая дорожка и субтитры с диска Фильм Престиж из личной коллекции и русская звуковая дорожка с этой раздачи, спасибо vedigo.
Сэмпл: http://multi-up.com/1183212
Тип релиза: WEB-DL 1080p
Контейнер: MKV
Видео: AVC, 12,3 Мбит/сек, 1440 x 1080, 23,976 fps
Аудио 1: Russian (Dolby AC3, 2 ch), 48 kHz, 192 kbps - Фильм Престиж
Аудио 2: Russian (Dolby AC3, 2 ch), 48 kHz, 192 kbps - СВ Дубль
Аудио 3: English (EAC3, 2 ch), 48 kHz, 224 kbps
Формат субтитров: UTF-8

MediaInfo

Matroska
Версия формата : Version 2
Размер файла : 9,63 Гбайт
Продолжительность : 1 ч. 45 м.
Режим общего битрейта : Переменный
Общий поток : 13,1 Мбит/сек
Дата кодирования : UTC 2018-01-14 07:54:43
Программа кодирования : mkvmerge v7.5.0 ('Glass Culture') 32bit built on Jan 4 2015 16:37:25
Библиотека кодирования : libebml v1.3.1 + libmatroska v1.4.2
Attachements : cover.jpg
DURATION : 01:41:06.637000000
NUMBER_OF_FRAMES : 910
NUMBER_OF_BYTES : 54286
_STATISTICS_WRITING_APP : mkvmerge v7.5.0 ('Glass Culture') 32bit built on Jan 4 2015 16:37:25
_STATISTICS_WRITING_DATE_UTC : 2018-01-14 07:54:43
_STATISTICS_TAGS : BPS DURATION NUMBER_OF_FRAMES NUMBER_OF_BYTES
Видео
Идентификатор : 1
Формат : AVC
Формат/Информация : Advanced Video Codec
Профиль формата : High@L4.0
Параметр CABAC формата : Да
Параметр ReFrames формата : 4 кадра
Идентификатор кодека : V_MPEG4/ISO/AVC
Продолжительность : 1 ч. 45 м.
Вид битрейта : Переменный
Битрейт : 12,3 Мбит/сек
Максимальный битрейт : 15,0 Мбит/сек
Ширина : 1440 пикселей
Высота : 1080 пикселей
Соотношение сторон : 4:3
Режим частоты кадров : Постоянный
Частота кадров : 23,976 кадра/сек
Цветовое пространство : YUV
Субдискретизация насыщенности : 4:2:0
Битовая глубина : 8 бит
Тип развёртки : Прогрессивная
Бит/(Пиксели*Кадры) : 0.329
Размер потока : 8,99 Гбайт (93%)
Язык : Russian
Default : Да
Forced : Нет
Основные цвета : BT.709
Характеристики трансфера : BT.709
Коэффициенты матрицы : BT.709
colour_range : Limited
Аудио #1
Идентификатор : 2
Формат : AC-3
Формат/Информация : Audio Coding 3
Расширение режима : CM (complete main)
Параметр Endianness формата : Big
Идентификатор кодека : A_AC3
Продолжительность : 1 ч. 45 м.
Вид битрейта : Постоянный
Битрейт : 192 Кбит/сек
Каналы : 2 канала
Расположение каналов : Front: L R
Частота : 48,0 КГц
Битовая глубина : 16 бит
Метод сжатия : С потерями
Размер потока : 144 Мбайт (1%)
Заголовок : FP
Язык : Russian
Default : Да
Forced : Нет
Аудио #2
Идентификатор : 3
Формат : AC-3
Формат/Информация : Audio Coding 3
Расширение режима : CM (complete main)
Параметр Endianness формата : Big
Идентификатор кодека : A_AC3
Продолжительность : 1 ч. 45 м.
Вид битрейта : Постоянный
Битрейт : 192 Кбит/сек
Каналы : 2 канала
Расположение каналов : Front: L R
Частота : 48,0 КГц
Битовая глубина : 16 бит
Метод сжатия : С потерями
Размер потока : 144 Мбайт (1%)
Язык : Russian
Default : Нет
Forced : Нет
Аудио #3
Идентификатор : 4
Формат : E-AC-3
Формат/Информация : Audio Coding 3
Параметр Endianness формата : Big
Идентификатор кодека : A_EAC3
Продолжительность : 1 ч. 45 м.
Вид битрейта : Постоянный
Битрейт : 224 Кбит/сек
Каналы : 2 канала
Расположение каналов : Front: L R
Частота : 48,0 КГц
Метод сжатия : С потерями
Размер потока : 168 Мбайт (2%)
Язык : English
Default : Нет
Forced : Нет
Текст #1
Идентификатор : 5
Формат : UTF-8
Идентификатор кодека : S_TEXT/UTF8
Идентификатор кодека/Информация : UTF-8 Plain Text
Язык : Russian
Default : Нет
Forced : Нет
Текст #2
Идентификатор : 6
Формат : UTF-8
Идентификатор кодека : S_TEXT/UTF8
Идентификатор кодека/Информация : UTF-8 Plain Text
Язык : English
Default : Нет
Forced : Нет
Текст #3
Идентификатор : 7
Формат : UTF-8
Идентификатор кодека : S_TEXT/UTF8
Идентификатор кодека/Информация : UTF-8 Plain Text
Заголовок : SDH
Язык : English
Default : Нет
Forced : Нет
Меню
00:00:00.000 : en:01. Opening Titles
00:01:40.017 : en:02. Hangmen
00:07:28.406 : en:03. The Emissary
00:12:28.373 : en:04. Treasonous Affections
00:17:15.534 : en:05. The Celebrated Journey
00:21:06.849 : en:06. Introductions and Inspections
00:27:49.042 : en:07. Brood Mare and Royal Half-Wit
00:35:28.960 : en:08. Blessed Be This Bed
00:41:22.647 : en:09. Carefree Spirit of Youth
00:48:43.003 : en:10. Clandestine Desire
00:55:23.278 : en:11. Rivals
01:02:42.384 : en:12. A very Fortunate Encounter
01:09:47.809 : en:13. Lessons in Deceit
01:15:58.637 : en:14. Mourning and Terror
01:20:25.029 : en:15. Surveying the Troops
01:24:25.394 : en:16. An Enviable Privilege
01:29:18.562 : en:17. Historic Banquet
01:34:20.864 : en:18. Pray for Her Majesty
01:41:05.810 : en:19. Victory Bells

Скриншоты



Display posts:    

Current time is: 15-Nov 10:56

All times are UTC ± 0


You cannot post new topics in this forum
You cannot reply to topics in this forum
You cannot edit your posts in this forum
You cannot delete your posts in this forum
You cannot vote in polls in this forum
You cannot attach files in this forum
You cannot download files in this forum

!ATTENTION!
The site does not give electronic versions of products, and is engaged only in a collecting and cataloguing of the references sent and published at a forum by our readers. If you are the legal owner of any submitted material and do not wish that the reference to it was in our catalogue, contact us and we shall immediately remove her. Files for an exchange on tracker are given by users of a site, and the administration does not bear the responsibility for their maintenance. The request to not fill in the files protected by copyrights, and also files of the illegal maintenance!