Ивановский Торрент трекер
Яндекс.Погода
DL-List and Torrent activity
Size:  1.46 GB   |    Registered:  28 days   |    Completed:  0 times

Seeder not seen: Never

 
     
 
 
 

[Quote]
sergey82

Кроличья нора / Rabbit Hole
Страна: США
Жанр: драма
Год выпуска: 2010
Продолжительность: 01:31:28-Перевод: Профессиональный (дублированный) | R5
Субтитры: нет
Оригинальная аудиодорожка: нет-Режиссер: Джон Кэмерон Митчелл / John Cameron Mitchell-В ролях: Николь Кидман, Аарон Экхарт, Дайэнн Уист, Майлз Теллер, Тэмми Бланчард, Сандра О, Джанкарло Эспозито, Джон Тенни, Стефен Мэйлер, Майк Дойл, Роберта Уоллах, Патриция Кэлембер-Описание: Восемь месяцев назад в семье Хауи и Бекки Корбетт произошла страшная трагедия — погиб их маленький сын. От ее последствий супруги не могут оправиться до сих пор. Каждый по-своему пытается восстановить душевный покой: Хауи играет в сквош с друзьями, Бекка проводит целые дни у плиты, оба ищут поддержки в группах психологической взаимопомощи.
Но время идет, а все усилия остаются тщетными. Брак трещит по швам, отношения с родными напряжены до предела, круг общения сокращается на глазах. Парадоксальным образом, луч надежды пробивает пелену безнадежности, когда судьба сводит Бекку с невольным виновником их несчастий — юным автором комиксов Джейсоном. Вместе героям предстоит понять, затягиваются ли раны прошлого хоть когда-нибудь.- -Качество видео: HDRip
Формат видео: AVI
Видео: 720x400 (1.80:1), 23.976 fps, XviD build 73 ~1824 kbps avg, 0.26 bit/pixel
Аудио: 48 kHz, AC3 Dolby Digital, 3/2 (L,C,R,l,r) + LFE ch, ~448 kbps-[box]Сэмпл[/box]-

MediaInfo

Код:
Формат : AVI
Формат/Информация : Audio Video Interleave
Размер файла : 1,46 Гбайт
Продолжительность : 1 ч. 31 м.
Общий поток : 2 282 Кбит/сек
Название фильма : Кроличья нора_2010_HDRip
Программа кодирования : VirtualDubMod 1.5.10.3 | www.virtualdub-fr.org || (build 2550/release)
Авторское право : порошков
Видео
Идентификатор : 0
Формат : MPEG-4 Visual
Профиль формата : Advanced [email protected]
Настройки формата : BVOP1 / Custom Matrix
Параметр BVOP формата : 1
Параметр QPel формата : Нет
Параметр GMC формата : Без точки перехода
Параметр матрицы формата : Выборочная
Идентификатор кодека : XVID
Идентификатор кодека/Подсказка : XviD
Продолжительность : 1 ч. 31 м.
Битрейт : 1 824 Кбит/сек
Ширина : 720 пикселей
Высота : 400 пикселей
Соотношение сторон : 16:9
Частота кадров : 23,976 (24000/1001) кадра/сек
Цветовое пространство : YUV
Субдискретизация насыщенности : 4:2:0
Битовая глубина : 8 бит
Тип развёртки : Прогрессивная
Метод сжатия : С потерями
Бит/(Пиксели*Кадры) : 0.264
Размер потока : 1,17 Гбайт (80%)
Библиотека кодирования : XviD 73
Аудио
Идентификатор : 1
Формат : AC-3
Формат/Информация : Audio Coding 3
Коммерческое название : Dolby Digital
Идентификатор кодека : 2000
Продолжительность : 1 ч. 31 м.
Вид битрейта : Постоянный
Битрейт : 448 Кбит/сек
Каналы : 6 каналов
Channel layout : L R C LFE Ls Rs
Частота : 48,0 КГц
Частота кадров : 31,250 кадров/сек (1536 SPF)
Метод сжатия : С потерями
Размер потока : 293 Мбайт (20%)
Выравнивание : Разделение по промежуткам
Продолжительность промежутка : 42 мс. (1,00 видеокадр)
Время предзагрузки промежутка : 500 мс.
Service kind : Complete Main

Скриншоты


[iv-torrents.ru].t108859.torrent
Torrent: Registered [ 2020-05-06 12:04 ] · 4D22FFE1EF8D609C1203C645FFFE7A219F0034CE

Download .torrent

Download

15 KB

Status: checked
Completed: 0 times
Size: 1.46 GB
terms.php
Похожие темы


Quick Reply

Name:

               
       
     
Heads necessary to send messages to enable JavaScript
Display posts:    

Current time is: 04-Jun 10:23

All times are UTC ± 0


You can post new topics in this forum
You can reply to topics in this forum
You cannot edit your posts in this forum
You cannot delete your posts in this forum
You cannot vote in polls in this forum
You cannot attach files in this forum
You can download files in this forum

!ATTENTION!
The site does not give electronic versions of products, and is engaged only in a collecting and cataloguing of the references sent and published at a forum by our readers. If you are the legal owner of any submitted material and do not wish that the reference to it was in our catalogue, contact us and we shall immediately remove her. Files for an exchange on tracker are given by users of a site, and the administration does not bear the responsibility for their maintenance. The request to not fill in the files protected by copyrights, and also files of the illegal maintenance!