Ивановский Торрент трекер
Яндекс.Погода
DL-List and Torrent activity
None
 
     
 
 

[Quote]
HUNTER

Космические лоцманы
Год выпуска: 2003
Страна: Россия
Жанр: Документальный
Продолжительность: 52 мин.
Перевод: Не требуется
Русские субтитры: нет
Режиссеры: Алексей Малечкин, Сергей Линников
Описание: В 1949 году советские ученые приступили к разработке темы «Физиолого-гигиеническое обоснование полета в особых условиях». Что творилось за забором «почтового ящика» - знали лишь посвященные в тайну космического проекта. Разрешение проводить испытания на выживаемость человека в экстремальных условиях было дано лично Сталиным. Эксперименты проводились над живыми людьми – после микробов и животных врачи ставили опыты на себе, чтобы те, кто пойдет за ними, были готовы ко всему, что может произойти на околоземной орбите: испытания запаса прочности человеческого тела, ударные перегрузки, выживание в холоде. Герои фильма – испытатели ГНИИАКМ (института космической медицины): доктор медицинских наук, профессор, академик РАО Владимир Александрович Пономаренко; майор в отставке, артист Джон Иванович Гридунов; полковник медицинской службы в отставке, научный сотрудник ГНИИИ ВМ Алек Зорабович Мнацаканян.
Качество: TVRip
Формат: AVI
Видео кодек: DivX
Аудио кодек: MP3
Видео: DX50, 712*560, 1.271, 25 fps, 1894 Kbps
Аудио: MP3, 128 kbps, 44.1 kHz, 2 channels

MediaInfo

General
Complete name : S:\2003 - Космические лоцманы (А. Малечкин, С. Линников)\Космические лоцманы (2003).avi
Format : AVI
Format/Info : Audio Video Interleave
File size : 748 MiB
Duration : 51mn 27s
Overall bit rate : 2 032 Kbps
Writing library : VirtualDub-MPEG2 build 23843/release
Video
ID : 0
Format : MPEG-4 Visual
Format settings, BVOP : 1
Format settings, QPel : No
Format settings, GMC : No warppoints
Format settings, Matrix : Default (H.263)
Muxing mode : Packed bitstream
Codec ID : DX50
Codec ID/Hint : DivX 5
Duration : 51mn 27s
Bit rate : 1 894 Kbps
Width : 712 pixels
Height : 560 pixels
Display aspect ratio : 1.271
Frame rate : 25.000 fps
Color space : YUV
Chroma subsampling : 4:2:0
Bit depth : 8 bits
Scan type : Progressive
Compression mode : Lossy
Bits/(Pixel*Frame) : 0.190
Stream size : 697 MiB (93%)
Writing library : DivX 6.8.5 (UTC 2009-08-20)
Audio
ID : 1
Format : MPEG Audio
Format version : Version 1
Format profile : Layer 3
Mode : Joint stereo
Mode extension : MS Stereo
Codec ID : 55
Codec ID/Hint : MP3
Duration : 51mn 27s
Bit rate mode : Constant
Bit rate : 128 Kbps
Channel(s) : 2 channels
Sampling rate : 44.1 KHz
Compression mode : Lossy
Stream size : 47.1 MiB (6%)
Alignment : Split accross interleaves
Interleave, duration : 40 ms (1.00 video frame)
Interleave, preload duration : 500 ms

Скриншоты



Display posts:    

Current time is: 16-Dec 13:56

All times are UTC ± 0


You cannot post new topics in this forum
You cannot reply to topics in this forum
You cannot edit your posts in this forum
You cannot delete your posts in this forum
You cannot vote in polls in this forum
You cannot attach files in this forum
You cannot download files in this forum

!ATTENTION!
The site does not give electronic versions of products, and is engaged only in a collecting and cataloguing of the references sent and published at a forum by our readers. If you are the legal owner of any submitted material and do not wish that the reference to it was in our catalogue, contact us and we shall immediately remove her. Files for an exchange on tracker are given by users of a site, and the administration does not bear the responsibility for their maintenance. The request to not fill in the files protected by copyrights, and also files of the illegal maintenance!