Ивановский Торрент трекер
Яндекс.Погода
DL-List and Torrent activity
None
 
     
 
 

[Quote]
HUNTER

Королевский корги | The Queen's Corgi«Хвостатый кардинал британского престола»- Год выпуска: 2019
Страна: Бельгия (Belga Productions, nWave Pictures, Montecito Film Company, RTL TVI, Charades)
Жанр: мультфильм, комедия, семейный
Продолжительность: 01:25:17
Субтитры (SRT): Rus, Eng (Full)
Перевод: Профессиональный дублированный (iTunes)
Режиссеры: Винсент Кестелут / Vincent Kesteloot, Бен Стассен / Ben Stassen (Стань легендой! Бигфут Младший (2017), Робинзон Крузо: Очень обитаемый остров (2016), Кот Гром и заколдованный дом (2013), Шевели ластами 2 (2012), Шевели ластами! (2010), ...)-Роли озвучивали / дублировали: Иэн МакКи / Иван Калинин (Jack), Шеридан Смит / Лина Иванова (Wanda), Джек Уайтхолл / Сергей Смирнов (Rex), Джули Уолтерс / Ирина Маликова (Queen), Мэтт Лукас / Даниил Эльдаров (Charlie), Рэй Уинстон / Владимир Паляница (Tyson), Николь Муриа Шерман / Алиса Ефименко (Little Girl), Джон Калшоу / Александр Новиков (Trump), Сара Хэдлэнд / Юлия Горохова (Mitzy), Том Кортни / Владимир Зайцев (The Duke Of Edinburgh), Колин Макфарлэйн / Иван Породнов (Chief), Кулвиндер Гир / Алексей Войтюк (Sanjay), Дебра Стивенсон / Ирина Киреева (Melania), Нина Вадиа / Ольга Кузнецова (Patmore)-Описание:Любимая порода собак у очень богатых и влиятельных людей — это корги. Маленькие собачки полностью погружены в жизнь своих больших хозяев. Спасаясь от политических интриг, любимец Британской Королевы вынужден покинуть Букингемский дворец. Теперь ему предстоит не только познакомиться с тайной жизнью улиц Лондона, но и доказать, что он настоящий Королевский Корги…-
IMDb: 4.70 (2024)
Sample
релиз: --Качество: BDRip 720p | The.Queen's.Corgi.2019.BDREMUX.1080p.seleZen
Контейнер: MKV-Видео: AVC 4185 kb/s 1280 x 720 (1.778) 24.000 fps
Аудио:
#1 - Русский / AC3 / 48 KHz / 5.1 ch / 384 Kbps (Дубляж - iTunes)
#2 - Украинский / AC3 / 48 KHz / 5.1 ch / 384 Kbps (Дубляж - iTunes)
#3 - Английский / AC3 / 48 KHz / 5.1 ch / 640 Kbps (Original )

MediaInfo | Log

скрытый текст

x264 [info]: frame I:1319 Avg QP:10.90 size:174209
x264 [info]: frame P:33607 Avg QP:12.58 size: 41922
x264 [info]: frame B:87883 Avg QP:14.99 size: 11816
x264 [info]: consecutive B-frames: 3.3% 4.4% 31.3% 24.3% 15.2% 17.1% 2.0% 1.2% 0.5% 0.3% 0.5%
x264 [info]: mb I I16..4: 10.8% 57.9% 31.3%
x264 [info]: mb P I16..4: 1.2% 12.0% 2.4% P16..4: 21.5% 20.8% 12.9% 4.0% 0.9% skip:24.3%
x264 [info]: mb B I16..4: 0.3% 1.8% 0.3% B16..8: 23.1% 16.4% 3.5% direct: 4.2% skip:50.4% L0:37.0% L1:45.9% BI:17.2%
x264 [info]: 8x8 transform intra:74.0% inter:40.6%
x264 [info]: direct mvs spatial:100.0% temporal:0.0%
x264 [info]: coded y,uvDC,uvAC intra: 85.1% 84.9% 76.3% inter: 16.9% 13.7% 6.7%
x264 [info]: i16 v,h,dc,p: 36% 13% 13% 37%
x264 [info]: i8 v,h,dc,ddl,ddr,vr,hd,vl,hu: 12% 14% 14% 8% 10% 9% 10% 10% 13%
x264 [info]: i4 v,h,dc,ddl,ddr,vr,hd,vl,hu: 13% 13% 13% 7% 13% 10% 11% 8% 10%
x264 [info]: i8c dc,h,v,p: 39% 29% 18% 14%
x264 [info]: Weighted P-Frames: Y:2.4% UV:1.9%
x264 [info]: ref P L0: 62.7% 8.7% 12.9% 4.4% 3.5% 2.7% 2.2% 1.3% 1.4% 0.1% 0.0%
x264 [info]: ref B L0: 81.7% 9.0% 3.9% 1.9% 1.4% 1.1% 0.7% 0.3%
x264 [info]: ref B L1: 96.4% 3.6%
x264 [info]: kb/s:4185.43
x264 [total]: encoded 122809 frames, 11.93 fps, 4185.43 kb/s
Format : Matroska
Format version : Version 4
File size : 3.33 GiB
Duration : 1 h 25 min
Overall bit rate : 5 594 kb/s
Movie name : The Queen's Corgi (2019).720p
Encoded date : UTC 2019-08-08 14:40:54
Writing application : mkvmerge v34.0.0 ('Sight and Seen') 64-bit
Writing library : libebml v1.3.7 + libmatroska v1.5.0
Video
ID : 1
Format : AVC
Format/Info : Advanced Video Codec
Format profile : High@L4.1
Format settings : CABAC / 9 Ref Frames
Format settings, CABAC : Yes
Format settings, Reference frames : 9 frames
Codec ID : V_MPEG4/ISO/AVC
Duration : 1 h 25 min
Bit rate : 4 185 kb/s
Width : 1 280 pixels
Height : 720 pixels
Display aspect ratio : 16:9
Frame rate mode : Constant
Frame rate : 24.000 FPS
Color space : YUV
Chroma subsampling : 4:2:0
Bit depth : 8 bits
Scan type : Progressive
Bits/(Pixel*Frame) : 0.189
Stream size : 2.49 GiB (75%)
Title : The Queen's Corgi (2019).720p
Writing library : x264 core 157 r2969 d4099dd
Encoding settings : cabac=1 / ref=9 / deblock=1:-3:-2 / analyse=0x3:0x133 / me=umh / subme=11 / psy=1 / psy_rd=1.00:0.05 / mixed_ref=1 / me_range=48 / chroma_me=1 / trellis=2 / 8x8dct=1 / cqm=0 / deadzone=21,11 / fast_pskip=0 / chroma_qp_offset=-3 / threads=12 / lookahead_threads=3 / sliced_threads=0 / nr=0 / decimate=1 / interlaced=0 / bluray_compat=0 / constrained_intra=0 / bframes=10 / b_pyramid=2 / b_adapt=2 / b_bias=0 / direct=3 / weightb=1 / open_gop=0 / weightp=2 / keyint=250 / keyint_min=23 / scenecut=40 / intra_refresh=0 / rc_lookahead=60 / rc=crf / mbtree=0 / crf=15.7 / qcomp=0.60 / qpmin=0 / qpmax=69 / qpstep=4 / vbv_maxrate=50000 / vbv_bufsize=62500 / crf_max=0.0 / nal_hrd=none / filler=0 / ip_ratio=1.40 / pb_ratio=1.30 / aq=3:0.90
Default : Yes
Forced : No
Audio #1
ID : 2
Format : AC-3
Format/Info : Audio Coding 3
Commercial name : Dolby Digital
Codec ID : A_AC3
Duration : 1 h 25 min
Bit rate mode : Constant
Bit rate : 384 kb/s
Channel(s) : 6 channels
Channel layout : L R C LFE Ls Rs
Sampling rate : 48.0 kHz
Frame rate : 31.250 FPS (1536 SPF)
Bit depth : 16 bits
Compression mode : Lossy
Stream size : 234 MiB (7%)
Title : Dub (iTunes)
Language : Russian
Service kind : Complete Main
Default : Yes
Forced : No
Audio #2
ID : 3
Format : AC-3
Format/Info : Audio Coding 3
Commercial name : Dolby Digital
Codec ID : A_AC3
Duration : 1 h 25 min
Bit rate mode : Constant
Bit rate : 384 kb/s
Channel(s) : 6 channels
Channel layout : L R C LFE Ls Rs
Sampling rate : 48.0 kHz
Frame rate : 31.250 FPS (1536 SPF)
Bit depth : 16 bits
Compression mode : Lossy
Stream size : 234 MiB (7%)
Title : Dub (iTunes)
Language : Ukrainian
Service kind : Complete Main
Default : No
Forced : No
Audio #3
ID : 4
Format : AC-3
Format/Info : Audio Coding 3
Commercial name : Dolby Digital
Codec ID : A_AC3
Duration : 1 h 25 min
Bit rate mode : Constant
Bit rate : 640 kb/s
Channel(s) : 6 channels
Channel layout : L R C LFE Ls Rs
Sampling rate : 48.0 kHz
Frame rate : 31.250 FPS (1536 SPF)
Bit depth : 16 bits
Compression mode : Lossy
Stream size : 390 MiB (11%)
Title : Original
Language : English
Service kind : Complete Main
Default : No
Forced : No
Text #1
ID : 5
Format : UTF-8
Codec ID : S_TEXT/UTF8
Codec ID/Info : UTF-8 Plain Text
Duration : 1 h 20 min
Bit rate : 98 b/s
Count of elements : 953
Stream size : 58.0 KiB (0%)
Title : Full
Language : Russian
Default : No
Forced : No
Text #2
ID : 6
Format : UTF-8
Codec ID : S_TEXT/UTF8
Codec ID/Info : UTF-8 Plain Text
Duration : 1 h 18 min
Bit rate : 56 b/s
Count of elements : 999
Stream size : 32.7 KiB (0%)
Title : Full
Language : English
Default : No
Forced : No
Menu
00:00:00.000 : en:Chapter 01
00:07:42.333 : en:Chapter 02
00:14:50.708 : en:Chapter 03
00:22:13.375 : en:Chapter 04
00:29:44.458 : en:Chapter 05
00:35:05.458 : en:Chapter 06
00:40:40.000 : en:Chapter 07
00:48:05.000 : en:Chapter 08
00:55:05.667 : en:Chapter 09
01:03:00.542 : en:Chapter 10
01:10:06.083 : en:Chapter 11
01:16:11.792 : en:Chapter 12

Скриншоты





Display posts:    

Current time is: 09-Dec 16:40

All times are UTC ± 0


You cannot post new topics in this forum
You cannot reply to topics in this forum
You cannot edit your posts in this forum
You cannot delete your posts in this forum
You cannot vote in polls in this forum
You cannot attach files in this forum
You cannot download files in this forum

!ATTENTION!
The site does not give electronic versions of products, and is engaged only in a collecting and cataloguing of the references sent and published at a forum by our readers. If you are the legal owner of any submitted material and do not wish that the reference to it was in our catalogue, contact us and we shall immediately remove her. Files for an exchange on tracker are given by users of a site, and the administration does not bear the responsibility for their maintenance. The request to not fill in the files protected by copyrights, and also files of the illegal maintenance!