Ивановский Торрент трекер
Яндекс.Погода
DL-List and Torrent activity
None
 
     
 
 

[Quote]
HUNTER

Король обезьян / Xi you ji zhi da sheng gui lai
Страна: Китай
Жанр: мультфильм, фэнтези, боевик
Год выпуска: 2015
Продолжительность: 01:26:51-Перевод: Профессиональный (дублированный)
Субтитры: русские, укринские, киргизские, грузинские
Оригинальная аудиодорожка: нет-Режиссер: Тянь Сяопэн / Tian Xiaopeng-В ролях: Чжан Лэй, Линь Цзыцзе, У Вэньлунь, Тун Цзыжун, Лю Цзюжун, У Ди, Лю Бэйчжэнь, Чжао Цяньцзин, Чжоу Шуай, Лу Юань-Описание: Всемогущий Король обезьян однажды прогневил богов и был заключен ими в ледяную бездну среди Мраморных Гор. Спустя 500 лет маленький мальчик случайно снимает заклятие и освобождает героя.
Теперь Короля ждет новое испытание: ему предстоит сразиться с Кровожадным Драконом. Сможет ли великий герой, владевший магией и кунг-фу, спасти людей и победить Могучего Дракона?-
Качество видео: WEBRip 1080p
Формат видео: MKV
Видео: 1896x800 (2.40:1), 24.000 fps, AVC, 4000 Кбит/сек
Аудио 1: 44.1 KHz, AAC LC, 2 ch ~192 kbps | rus
Аудио 2: 44.1 KHz, AAC LC, 2 ch ~192 kbps | ukr-[box]Сэмпл[/box]-

MediaInfo

Код:Формат : Matroska
Версия формата : Version 4
Размер файла : 2,66 Гбайт
Продолжительность : 1 ч. 26 м.
Общий поток : 4383 Кбит/сек
Название фильма : Король обезьян 2015 WEB 1080p RUTRACKER
Дата кодирования : UTC 2019-05-11 12:39:52
Программа кодирования : mkvmerge v33.1.0 ('Primrose') 64-bit
Библиотека кодирования : libebml v1.3.7 + libmatroska v1.5.0
Видео
Идентификатор : 1
Формат : AVC
Формат/Информация : Advanced Video Codec
Профиль формата : High@L4
Настройки формата : CABAC / 3 Ref Frames
Параметр CABAC формата : Да
Параметр RefFrames формата : 3 кадра
Идентификатор кодека : V_MPEG4/ISO/AVC
Продолжительность : 1 ч. 26 м.
Битрейт : 4000 Кбит/сек
Ширина : 1896 пикселей
Высота : 800 пикселей
Соотношение сторон : 2,40:1
Режим частоты кадров : Постоянный
Частота кадров : 24,000 кадра/сек
Цветовое пространство : YUV
Субдискретизация насыщенности : 4:2:0
Битовая глубина : 8 бит
Тип развёртки : Прогрессивная
Бит/(Пиксели*Кадры) : 0.110
Размер потока : 2,43 Гбайт (91%)
Библиотека кодирования : x264 core 142 r2389 956c8d8
Настройки программы : cabac=1 / ref=3 / deblock=1:0:0 / analyse=0x3:0x133 / me=umh / subme=7 / psy=1 / psy_rd=1.00:0.00 / mixed_ref=1 / me_range=32 / chroma_me=1 / trellis=2 / 8x8dct=1 / cqm=0 / deadzone=21,11 / fast_pskip=1 / chroma_qp_offset=-2 / threads=12 / lookahead_threads=2 / sliced_threads=0 / nr=0 / decimate=1 / interlaced=0 / bluray_compat=0 / constrained_intra=0 / bframes=0 / weightp=0 / keyint=72 / keyint_min=25 / scenecut=40 / intra_refresh=0 / rc_lookahead=50 / rc=2pass / mbtree=0 / bitrate=4000 / ratetol=1.0 / qcomp=0.20 / qpmin=10 / qpmax=51 / qpstep=4 / cplxblur=20.0 / qblur=0.5 / vbv_maxrate=5000 / vbv_bufsize=5000 / nal_hrd=none / filler=0 / ip_ratio=1.40 / aq=1:1.00
Default : Да
Forced : Нет
Цветовой диапазон : Limited
Основные цвета : BT.709
Характеристики трансфера : BT.709
Коэффициенты матрицы : BT.709
Аудио #1
Идентификатор : 2
Формат : AAC LC
Формат/Информация : Advanced Audio Codec Low Complexity
Идентификатор кодека : A_AAC-2
Продолжительность : 1 ч. 26 м.
Битрейт : 192 Кбит/сек
Каналы : 2 канала
ChannelLayout : L R
Частота : 44,1 КГц
Частота кадров : 43,066 кадра/сек (1024 SPF)
Метод сжатия : С потерями
Размер потока : 118 Мбайт (4%)
Язык : Russian
Default : Да
Forced : Нет
Аудио #2
Идентификатор : 3
Формат : AAC LC
Формат/Информация : Advanced Audio Codec Low Complexity
Идентификатор кодека : A_AAC-2
Продолжительность : 1 ч. 26 м.
Битрейт : 192 Кбит/сек
Каналы : 2 канала
ChannelLayout : L R
Частота : 44,1 КГц
Частота кадров : 43,066 кадра/сек (1024 SPF)
Метод сжатия : С потерями
Размер потока : 118 Мбайт (4%)
Язык : Ukrainian
Default : Нет
Forced : Нет
Текст #1
Идентификатор : 4
Формат : UTF-8
Идентификатор кодека : S_TEXT/UTF8
Идентификатор кодека/Информация : UTF-8 Plain Text
Продолжительность : 1 ч. 20 м.
Битрейт : 46 бит/сек
ElementCount : 504
Размер потока : 27,4 Кбайт (0%)
Язык : Russian
Default : Нет
Forced : Нет
Текст #2
Идентификатор : 5
Формат : UTF-8
Идентификатор кодека : S_TEXT/UTF8
Идентификатор кодека/Информация : UTF-8 Plain Text
Продолжительность : 1 ч. 21 м.
Битрейт : 44 бит/сек
ElementCount : 436
Размер потока : 26,2 Кбайт (0%)
Язык : Ukrainian
Default : Нет
Forced : Нет
Текст #3
Идентификатор : 6
Формат : UTF-8
Идентификатор кодека : S_TEXT/UTF8
Идентификатор кодека/Информация : UTF-8 Plain Text
Продолжительность : 1 ч. 20 м.
Битрейт : 50 бит/сек
ElementCount : 504
Размер потока : 29,7 Кбайт (0%)
Язык : Kirghiz
Default : Нет
Forced : Нет
Текст #4
Идентификатор : 7
Формат : UTF-8
Идентификатор кодека : S_TEXT/UTF8
Идентификатор кодека/Информация : UTF-8 Plain Text
Продолжительность : 1 ч. 20 м.
Битрейт : 64 бит/сек
ElementCount : 504
Размер потока : 38,2 Кбайт (0%)
Язык : Georgian
Default : Нет
Forced : Нет

Скриншоты




Display posts:    

Current time is: 21-May 18:53

All times are UTC ± 0


You cannot post new topics in this forum
You cannot reply to topics in this forum
You cannot edit your posts in this forum
You cannot delete your posts in this forum
You cannot vote in polls in this forum
You cannot attach files in this forum
You cannot download files in this forum

!ATTENTION!
The site does not give electronic versions of products, and is engaged only in a collecting and cataloguing of the references sent and published at a forum by our readers. If you are the legal owner of any submitted material and do not wish that the reference to it was in our catalogue, contact us and we shall immediately remove her. Files for an exchange on tracker are given by users of a site, and the administration does not bear the responsibility for their maintenance. The request to not fill in the files protected by copyrights, and also files of the illegal maintenance!