Ивановский Торрент трекер
Яндекс.Погода
 

[Quote]
HUNTER

Корабль мертвецов / Das totenschiff
Страна: Германия, Мексика
Студия: Ufa-FilmVerleih Zeight
Жанр: драма, приключения
Год выпуска: 1959
Продолжительность: 01:34:25
Перевод: Субтитры любительские - Антон Каптелов
Субтитры: русские, английские
Оригинальная аудиодорожка: немецкий
Режиссер: Георг Тресслер / Georg Tressler
В ролях: Хорст Буххольц, Марио Адорф, Гельмут Шмид, Альф Мархольм, Вернер Баттлер, Дитер фон Киль, Панос Пападопулос, Эдгар О. Файсс, Гюнтер Майснер, Альфред Бальтофф, Альберт Бесслер, Карл Лиффен, Мариелуиза Нэйджел, Эльке Зоммер, Бернхард Каспар, Зигфрид Дорнбуш, Питер Дорнзайф, Винфред Грот, Вольфганг Хайер, Рудольф Мёре, Курт Прач-Кауфман, Эрик Радольф, Херберт Рюдигер, Георг Тресслер
Описание: Фильм снят по мотивам одноименного произведения Бруно Травена, автора "Сокровищ Сьерра-Мадре". Филипп Гейл - американский матрос, волею судьбы застрявший в порту Антверпена. Случайная знакомая украла все его документы и деньги и теперь наш герой пытается выпутаться из сложившейся ситуации, но без паспорта его не берут ни на одно судно. Филипп устраивается на корабль, который больше похож на ржавое корыто с весьма разношерстным экипажем, но на котором не спрашивают документы. Здесь он подружился с кочегаром-поляком Лавски. Однажды приятели узнают о тайном грузе корабля и опасных планах капитана...
Доп. информация: В найденный в сети HDTV-захват, содержащий немецкий оригинал и английские субтитры, добавлены синхронизированные sovsem-neduhoven русские субтитры из релиза - http://rutracker.org/forum/viewtopic.php?t=5325333.
Сэмпл: https://cloud.mail.ru/public/GD5a/6i8Hse8u6
Тип релиза: HDTV 1080i
Контейнер: MKV
Видео: 5369 Кбит/сек, AVC 1920*1080 (16:9), 25,000 кадров/сек, CABAC
Аудио: Немецкий, 128 Кбит/сек, 48,0 КГц, 16 бит, 2 канала, AC-3
Формат субтитров: softsub (SRT)

MediaInfo

Общее
Уникальный идентификатор : 288874132397037835406978219628146329678 (0xD95322593E1A2C67297FCE9B5172084E)
Полное имя : H:\MONAR\Видео\Художественные фильмы\Зарубежное кино\Корабль мертвецов (1959) HDTV 1080i.mkv
Формат : Matroska
Версия формата : Version 4 / Version 2
Размер файла : 3,63 Гбайт
Продолжительность : 1 ч. 34 м.
Общий поток : 5499 Кбит/сек
Название фильма : Das totenschiff (1959)
Дата кодирования : UTC 2018-02-03 12:57:24
Программа кодирования : mkvmerge v19.0.0 ('Brave Captain') 64-bit
Библиотека кодирования : libebml v1.3.5 + libmatroska v1.4.8
Видео
Идентификатор : 1
Формат : AVC
Формат/Информация : Advanced Video Codec
Профиль формата : [email protected]
Настройки формата : CABAC / 4 Ref Frames
Параметр CABAC формата : Да
Параметр RefFrames формата : 4 кадра
Параметр GOP формата : M=8, N=24
Идентификатор кодека : V_MPEG4/ISO/AVC
Продолжительность : 1 ч. 34 м.
Битрейт : 5369 Кбит/сек
Ширина : 1920 пикселей
Высота : 1080 пикселей
Соотношение сторон : 16:9
Режим частоты кадров : Постоянный
Частота кадров : 25,000 кадров/сек
Стандарт вещания : Component
Цветовое пространство : YUV
Субдискретизация насыщенности : 4:2:0
Битовая глубина : 8 бит
Тип развёртки : MBAFF
Метод сохранения типа развёртки : Чередующиеся поля
Порядок развёртки : Верхнее поле первое
Бит/(Пиксели*Кадры) : 0.104
Размер потока : 3,54 Гбайт (98%)
Язык : German
Default : Да
Forced : Нет
Цветовой диапазон : Limited
Основные цвета : BT.709
Характеристики трансфера : BT.709
Коэффициенты матрицы : BT.709
Аудио
Идентификатор : 2
Формат : AC-3
Формат/Информация : Audio Coding 3
Идентификатор кодека : A_AC3
Продолжительность : 1 ч. 34 м.
Вид битрейта : Постоянный
Битрейт : 128 Кбит/сек
Каналы : 2 канала
Расположение каналов : Front: L R
Частота : 48,0 КГц
Частота кадров : 31,250 кадров/сек (1536 SPF)
Битовая глубина : 16 бит
Метод сжатия : С потерями
Задержка видео : -847 мс.
Размер потока : 86,4 Мбайт (2%)
Заголовок : original
Язык : German
ServiceKind/String : Complete Main
Default : Да
Forced : Нет
Текст #1
Идентификатор : 3
Формат : UTF-8
Идентификатор кодека : S_TEXT/UTF8
Идентификатор кодека/Информация : UTF-8 Plain Text
Продолжительность : 1 ч. 31 м.
Битрейт : 97 бит/сек
ElementCount : 1114
Размер потока : 65,2 Кбайт (0%)
Заголовок : srt
Язык : Russian
Default : Да
Forced : Нет
Текст #2
Идентификатор : 4
Формат : UTF-8
Идентификатор кодека : S_TEXT/UTF8
Идентификатор кодека/Информация : UTF-8 Plain Text
Продолжительность : 1 ч. 32 м.
Битрейт : 52 бит/сек
ElementCount : 1081
Размер потока : 35,9 Кбайт (0%)
Заголовок : srt
Язык : English
Default : Нет
Forced : Нет

Скриншоты



Display posts:    

Current time is: 14-Jul 10:39

All times are UTC ± 0


You cannot post new topics in this forum
You cannot reply to topics in this forum
You cannot edit your posts in this forum
You cannot delete your posts in this forum
You cannot vote in polls in this forum
You cannot attach files in this forum
You cannot download files in this forum

!ATTENTION!
The site does not give electronic versions of products, and is engaged only in a collecting and cataloguing of the references sent and published at a forum by our readers. If you are the legal owner of any submitted material and do not wish that the reference to it was in our catalogue, contact us and we shall immediately remove her. Files for an exchange on tracker are given by users of a site, and the administration does not bear the responsibility for their maintenance. The request to not fill in the files protected by copyrights, and also files of the illegal maintenance!