Ивановский Торрент трекер
Яндекс.Погода
Статистика раздачи
Размер:  13.43 GB   |    Зарегистрирован:  5 месяцев 13 дней   |    Скачан:  0 раз
Сидов:  64  [  0 KB/s  ]   Личеров:  4  [  0 KB/s  ]   Подробная статистика пиров
 
     
 
 

[Цитировать]
HUNTER

Коматозники / Flatliners
Страна: США
Студия: Cross Creek Pictures, Furthur Films, Laurence Mark Productions, Screen Gems
Жанр: Ужасы, фантастика, триллер, драма
Год выпуска: 2017
Продолжительность: 01:49:46
Перевод: Профессиональный (дублированный) iTunes
Субтитры: Русские, Английские
Оригинальная аудиодорожка: английский
Режиссер: Нильс Арден Оплев / Niels Arden Oplev
В ролях: Эллен Пейдж, Диего Луна, Нина Добрев, Джеймс Нортон, Кирси Клемонс, Кифер Сазерленд, Джейкоб Соли, Анна Арден Оплев, Мигель Энтони
Описание: Пятеро студентов-медиков, одержимых желанием узнать, что происходит с человеком после смерти, решаются на рискованный эксперимент: на время они останавливают друг другу сердце, чтобы погрузиться в состояние клинической смерти и на собственном опыте понять, что происходит с человеком по ту сторону. Но они забывают, что, переступив черту, нужно быть готовым к последствиям.
[box]Скачать сэмпл[/box]
Тип релиза: BDRip 1080p
Контейнер: MKV
Видео: MPEG-4 AVC, 16,5 Мбит/с, 1920x804, 23,976 fps
Аудио 1: Rus, AC3, 384 kb/s (6 ch), 48 kHz
Аудио 2: Eng, AC3, 640 kb/s (6 ch), 48 kHz
Формат субтитров: softsub (SRT)

Дополнительно

x264 [info]: frame I:1498 Avg QP:13.69 size:213807
x264 [info]: frame P:33604 Avg QP:14.79 size:133658
x264 [info]: frame B:122818 Avg QP:16.30 size: 71327
x264 [info]: consecutive B-frames: 2.2% 3.3% 4.7% 24.9% 14.8% 28.8% 9.1% 11.2% 1.0%
-
[box]NOTES:
* Fixed dirty lines.
* Applied F3kdb ConditionalFilter and zones for some scenes visible banding and blocking.
* Source was separated into semi-dark, dark, red, high motion scenes along with various crf values on zones.
* Greetings: Hellboy, hungdaita, NoWayOut, Wolgone, and all Members of TayTO and UHDBits[/box]

Сравнения

Fixed dirty lines
Source |S.Filtered | TayTO | GECKOS(Resized)

Debanding | Deblocking
Source |S.Filtered | TayTO | GECKOS(Resized)





MediaInfo

Общее
Уникальный идентификатор : 127966356195757025486690518671337145422 (0x60456C7961F9397DAFF3FBF4064B444E)
Полное имя : Flatliners.2017.BDRip.1080p.Secrets.mkv
Формат : Matroska
Версия формата : Version 4 / Version 2
Размер файла : 13,4 Гбайт
Продолжительность : 1 ч. 49 м.
Общий поток : 17,5 Мбит/сек
Название фильма : Flatliners (2017) - Release for rutracker.org by Secrets
Дата кодирования : UTC 2018-01-15 23:41:59
Программа кодирования : mkvmerge v19.0.0 ('Brave Captain') 64-bit
Библиотека кодирования : libebml v1.3.5 + libmatroska v1.4.8
Видео
Идентификатор : 1
Формат : AVC
Формат/Информация : Advanced Video Codec
Профиль формата : High@L4.1
Параметр CABAC формата : Да
Параметр ReFrames формата : 5 кадров
Идентификатор кодека : V_MPEG4/ISO/AVC
Продолжительность : 1 ч. 49 м.
Битрейт : 16,5 Мбит/сек
Ширина : 1920 пикселей
Высота : 804 пикселя
Соотношение сторон : 2,40:1
Режим частоты кадров : Постоянный
Частота кадров : 23,976 (24000/1001) кадра/сек
Цветовое пространство : YUV
Субдискретизация насыщенности : 4:2:0
Битовая глубина : 8 бит
Тип развёртки : Прогрессивная
Бит/(Пиксели*Кадры) : 0.445
Размер потока : 12,6 Гбайт (94%)
Заголовок : Flatliners (2017) - Release for rutracker.org by Secrets
Библиотека кодирования : x264 core 142 r2431+42 c69a006 tMod [8-bit@4:2:0 X86_64]
Настройки программы : cabac=1 / ref=5 / deblock=1:-3:-3 / analyse=0x3:0x113 / me=umh / subme=11 / psy=1 / fade_compensate=0.00 / psy_rd=1.00:0.00 / mixed_ref=1 / me_range=32 / chroma_me=1 / trellis=2 / 8x8dct=1 / cqm=0 / deadzone=21,11 / fast_pskip=0 / chroma_qp_offset=-2 / threads=9 / lookahead_threads=1 / sliced_threads=0 / nr=0 / decimate=0 / interlaced=0 / bluray_compat=0 / constrained_intra=0 / fgo=0 / bframes=8 / b_pyramid=2 / b_adapt=2 / b_bias=0 / direct=3 / weightb=1 / open_gop=0 / weightp=2 / keyint=250 / keyint_min=23 / scenecut=40 / intra_refresh=0 / rc_lookahead=60 / rc=crf / mbtree=0 / crf=16.9000 / qcomp=0.60 / qpmin=0:0:0 / qpmax=69:69:69 / qpstep=4 / vbv_maxrate=62500 / vbv_bufsize=78125 / crf_max=0.0 / nal_hrd=none / filler=0 / ip_ratio=1.30 / pb_ratio=1.20 / aq=3:0.80 / aq-sensitivity=10.00 / aq-factor=1.00:1.00:1.00 / aq2=0 / aq3=0 / zones=1519,1575,crf=14.8/2592,2801,crf=14.8/3106,3250,crf=14.8/3676,3895,crf=14.8/3940,4499,crf=14.8/4680,4814,crf=14.8/7154,7230,crf=14.8/7421,7483,crf=14.8/7521,7566,crf=14.8/7789,7814,crf=14.8/7881,7917,crf=14.8/8579,8651,crf=14.8/8891,8977,crf=14.8/8978,9369,crf=14.8/9370,9456,crf=12.8/9457,9665,crf=12.8/9830,11769,crf=14.5/10619,10702,crf=14.8/10845,10902,crf=12.8/11004,11120,crf=12.8/11160,11235,crf=12.8/11302,11347,crf=12.8/11387,11430,crf=12.8/11460,11488,crf=12.8/12695,12740,crf=14.8/12804,12867,crf=14.8/13431,13482,crf=14.8/20701,20785,crf=14.8/22542,22616,crf=12.8/23502,23550,crf=14.8/23594,23666,crf=14.8/23780,23821,crf=14.8/27506,27546,crf=14.8/27776,27842,crf=14.8/27962,28077,crf=14.8/28327,28380,crf=14.8/29458,29536,crf=14.8/29958,30000,crf=14.8/30083,30158,crf=14.8/30616,30723,crf=14.8/30744,30810,crf=12.8/30837,30911,crf=12.8/30991,31177,crf=14.5/31271,31535,crf=14.5/31583,31801,crf=14.5/32338,32369,crf=14.8/32481,32655,crf=14.8/33343,33381,crf=14.8/33418,33459,crf=12.8/34351,34376,crf=12.8/33508,33851,crf=14.5/34472,34507,crf=14.8/35206,35266,crf=14.8/35403,35586,crf=14.8/36352,36469,crf=14.8/37724,37805,crf=14.8/42021,42090,crf=14.8/45763,45805,crf=14.8/45956,46005,crf=14.8/46732,46765,crf=14.8/52693,53450,crf=14.5/64209,64239,crf=14.8/64332,64383,crf=14.8/67229,69101,crf=14.5/69181,69278,crf=12.8/73437,73445,crf=12.8/73686,74618,crf=14.5/79907,80620,crf=14.5/84068,84488,crf=14.8/84608,84682,crf=15.3/84727,84788,crf=15.3/84964,85056,crf=15.3/85279,85326,crf=15.3/85341,85407,crf=15.3/85493,85549,crf=15.3/86342,87016,crf=15.3/88771,88952,crf=15.8/91442,92023,crf=15/92191,92251,crf=15/92843,94256,crf=15.3/94298,94408,crf=14.8/94683,94771,crf=14.8/95077,95137,crf=12.8/95566,98982,crf=14/100932,101032,crf=14.8/102893,102950,crf=14.8/103000,103050,crf=14.8/108792,109594,crf=14/112297,115148,crf=14/123058,123350,crf=14.8/125258,125518,crf=14.8/135433,136854,crf=14/138375,138441,crf=12.8/139996,140061,crf=12.8/141142,142042,crf=15.3/142126,142163,crf=14.8/142233,142763,crf=14.8/142414,142458,crf=14.8/145067,146288,crf=14/151995,157919,crf=19.8
Язык : English
Default : Да
Forced : Нет
Цветовой диапазон : Limited
Основные цвета : BT.709
Характеристики трансфера : BT.709
Коэффициенты матрицы : BT.709
Аудио #1
Идентификатор : 2
Формат : AC-3
Формат/Информация : Audio Coding 3
Расширение режима : CM (complete main)
Параметр Endianness формата : Big
Идентификатор кодека : A_AC3
Продолжительность : 1 ч. 49 м.
Вид битрейта : Постоянный
Битрейт : 384 Кбит/сек
Каналы : 6 каналов
Расположение каналов : Front: L C R, Side: L R, LFE
Частота : 48,0 КГц
Частота кадров : 31,250 кадров/сек (1536 spf)
Метод сжатия : С потерями
Размер потока : 301 Мбайт (2%)
Заголовок : iTunes
Язык : Russian
Default : Да
Forced : Нет
Аудио #2
Идентификатор : 3
Формат : AC-3
Формат/Информация : Audio Coding 3
Расширение режима : CM (complete main)
Параметр Endianness формата : Big
Идентификатор кодека : A_AC3
Продолжительность : 1 ч. 49 м.
Вид битрейта : Постоянный
Битрейт : 640 Кбит/сек
Каналы : 6 каналов
Расположение каналов : Front: L C R, Side: L R, LFE
Частота : 48,0 КГц
Частота кадров : 31,250 кадров/сек (1536 spf)
Метод сжатия : С потерями
Размер потока : 503 Мбайт (4%)
Язык : English
Default : Нет
Forced : Нет
Текст #1
Идентификатор : 4
Формат : UTF-8
Идентификатор кодека : S_TEXT/UTF8
Идентификатор кодека/Информация : UTF-8 Plain Text
Продолжительность : 1 ч. 47 м.
Битрейт : 0 бит/сек
Count of elements : 10
Размер потока : 473 байт (0%)
Заголовок : Forced
Язык : Russian
Default : Да
Forced : Нет
Текст #2
Идентификатор : 5
Формат : UTF-8
Идентификатор кодека : S_TEXT/UTF8
Идентификатор кодека/Информация : UTF-8 Plain Text
Продолжительность : 1 ч. 47 м.
Битрейт : 75 бит/сек
Count of elements : 1244
Размер потока : 59,4 Кбайт (0%)
Язык : Russian
Default : Нет
Forced : Нет
Текст #3
Идентификатор : 6
Формат : UTF-8
Идентификатор кодека : S_TEXT/UTF8
Идентификатор кодека/Информация : UTF-8 Plain Text
Продолжительность : 1 ч. 43 м.
Битрейт : 47 бит/сек
Count of elements : 1233
Размер потока : 36,0 Кбайт (0%)
Язык : English
Default : Нет
Forced : Нет
Текст #4
Идентификатор : 7
Формат : UTF-8
Идентификатор кодека : S_TEXT/UTF8
Идентификатор кодека/Информация : UTF-8 Plain Text
Продолжительность : 1 ч. 46 м.
Битрейт : 61 бит/сек
Count of elements : 1695
Размер потока : 47,8 Кбайт (0%)
Заголовок : SDH
Язык : English
Default : Нет
Forced : Нет
Меню
00:00:00.000 : en:CHAPTER01
00:05:48.557 : en:CHAPTER02
00:11:21.097 : en:CHAPTER03
00:18:01.205 : en:CHAPTER04
00:26:41.600 : en:CHAPTER05
00:35:10.734 : en:CHAPTER06
00:42:31.382 : en:CHAPTER07
00:48:10.971 : en:CHAPTER08
00:55:32.621 : en:CHAPTER09
01:03:49.993 : en:CHAPTER10
01:09:43.262 : en:CHAPTER11
01:16:20.868 : en:CHAPTER12
01:24:18.011 : en:CHAPTER13
01:30:00.186 : en:CHAPTER14
01:36:06.094 : en:CHAPTER15
01:41:54.692 : en:CHAPTER16

Скриншоты

[iv-torrents.ru].t82589.torrent
Торрент: Зарегистрирован [ 2018-08-05 17:06 ] · 40F2094FB8B5F1916094B5AF81E2E399E6CB419B

Скачать .torrent

Скачать

34 KB

Статус: проверено
Скачан: 0 раз
Размер: 13.43 GB
terms.php
Похожие темы


Показать сообщения:    

Текущее время: 19-Янв 10:05

Часовой пояс: UTC ± 0


Вы не можете начинать темы
Вы не можете отвечать на сообщения
Вы не можете редактировать свои сообщения
Вы не можете удалять свои сообщения
Вы не можете голосовать в опросах
Вы не можете прикреплять файлы к сообщениям
Вы можете скачивать файлы

!ВНИМАНИЕ!
Сайт не предоставляет электронные версии произведений, а занимается лишь коллекционированием и каталогизацией ссылок, присылаемых и публикуемых на форуме нашими читателями. Если вы являетесь правообладателем какого-либо представленного материала и не желаете, чтобы ссылка на него находилась в нашем каталоге, свяжитесь с нами, и мы незамедлительно удалим ее. Файлы для обмена на трекере предоставлены пользователями сайта, и администрация не несет ответственности за их содержание. Просьба не заливать файлы, защищенные авторскими правами, а также файлы нелегального содержания!