Ивановский Торрент трекер
Яндекс.Погода
DL-List and Torrent activity
None
 
     
 
 

[Quote]
HUNTER

Колобанга. Привет, Интернет!
Выпущено: Россия, «МВК»
Жанр: мультфильм
Год выпуска: 2017
Продолжительность: 01:29:36-Субтитры: нет
Оригинальная аудиодорожка: нет-Режиссер: Александр Романец, Вячеслав Марченко-В ролях: Михаил Галустян, Александр Ревва, Гарик Харламов, Александр Романец, Вячеслав Марченко, Илья Дорогов, Сергей Васин, Денис Заречнов, Никита Погодаев, Олег Кучин-Описание: На бескрайних просторах Всемирной паутины, в Колобанге, беззаботно живут ничего не подозревающие смайлы-колобки. Они помогают мальчику Антону передавать эмоции в письмах, а в свободное от работы время отрываются по-круглому! Но однажды в городе происходит несколько таинственных событий, и становится понятно: коварные и могущественные силы хотят поработить Интернет! Смелые друзья — Чёлка, Колобок и Умник — встретятся с пришельцами, посетят заброшенный сайт, побывают в Карантине и столкнутся лицом к лицу с армией Правителя Фидо… Удастся ли им спасти Интернет, находясь на краю пропасти? «Колобанга» покажет!-Качество видео: WEB-DLRip
Формат видео: AVI
Видео: 720x400 (1.80:1), 25 fps, XviD build 73 ~2123 kbps avg, 0.29 bit/pixel
Аудио: 48 kHz, AC3 Dolby Digital, 2/0 (L,R) ch, ~192 kbps-Сэмпл-

MediaInfo

Код:Format : AVI
Format/Info : Audio Video Interleave
File size : 1.46 GiB
Duration : 1 h 29 min
Overall bit rate : 2 325 kb/s
Writing application : VirtualDubMod 1.5.10.3 | www.virtualdub-fr.org || (build 2550/release)
Writing library : VirtualDubMod build 2550/release
Video
ID : 0
Format : MPEG-4 Visual
Format profile : Advanced Simple@L5
Format settings : BVOP1 / Custom Matrix
Format settings, BVOP : 1
Format settings, QPel : No
Format settings, GMC : No warppoints
Format settings, Matrix : Custom
Codec ID : XVID
Codec ID/Hint : XviD
Duration : 1 h 29 min
Bit rate : 2 123 kb/s
Width : 720 pixels
Height : 400 pixels
Display aspect ratio : 16:9
Frame rate : 25.000 FPS
Color space : YUV
Chroma subsampling : 4:2:0
Bit depth : 8 bits
Scan type : Progressive
Compression mode : Lossy
Bits/(Pixel*Frame) : 0.295
Stream size : 1.33 GiB (91%)
Writing library : XviD 73
Audio
ID : 1
Format : AC-3
Format/Info : Audio Coding 3
Codec ID : 2000
Duration : 1 h 29 min
Bit rate mode : Constant
Bit rate : 192 kb/s
Channel(s) : 2 channels
Channel positions : Front: L R
Sampling rate : 48.0 kHz
Frame rate : 31.250 FPS (1536 SPF)
Bit depth : 16 bits
Compression mode : Lossy
Stream size : 123 MiB (8%)
Alignment : Split accross interleaves
Interleave, duration : 40 ms (1.00 video frame)
Interleave, preload duratio : 500 ms
Service kind : Complete Main

Скриншоты



Display posts:    

Current time is: 22-Jan 03:12

All times are UTC ± 0


You cannot post new topics in this forum
You cannot reply to topics in this forum
You cannot edit your posts in this forum
You cannot delete your posts in this forum
You cannot vote in polls in this forum
You cannot attach files in this forum
You cannot download files in this forum

!ATTENTION!
The site does not give electronic versions of products, and is engaged only in a collecting and cataloguing of the references sent and published at a forum by our readers. If you are the legal owner of any submitted material and do not wish that the reference to it was in our catalogue, contact us and we shall immediately remove her. Files for an exchange on tracker are given by users of a site, and the administration does not bear the responsibility for their maintenance. The request to not fill in the files protected by copyrights, and also files of the illegal maintenance!