Ивановский Торрент трекер
Яндекс.Погода
 

[Quote]
HUNTER

Книга жизни | The Book of Life- Страна: США (Reel FX Animation Studios, 20th Century Fox)
Жанр: Фэнтези, Мелодрама, Комедия, Приключения, Семейный
Продолжительность: 01:35:27
Год выпуска: 2014
Перевод 1: Профессиональный (дублированный) iTunes
Перевод 2: Профессиональный (дублированный) iTunes Ukr
Перевод 3: Любительский (двухголосый закадровый) (Студия Пиратского Дубляжа)
Субтитры: Русские, украинские, английские
Режиссёр: Хорхе Р. Гутьеррес / Jorge R. Gutierrez
Роли озвучивали: Manolo - Диего Луна, Maria - Зои Салдана, Joaquin - Ченнинг Татум, Xibalba - Рон Перлман, Mary Beth - Кристина Эпплгейт, Candle Maker - Айс Кьюб, La Muerte - Кейт дель Кастильо, Carlos Sanchez - Гектор Элизондо, Skeleton Luis - Дэнни Трехо, General Posada / Dali / Chuy - Карлос Аласраки, Skeleton Carmen - Ана де ла Регера, Skeleton Jorge - Пласидо Доминго, Land of the Remembered Captain's Wife - Гильермо дель Торо и др.
Описание: В мультфильме описывается романтическая история любви на фоне празднования Дня мертвых в Мексике. Духи Ла Муэрте и Шибальба посещают городок Сан Анхель в День Мёртвых, где они заключают пари после того как встречают пару мальчишек, Маноло и Хоакина, которые хотят завоевать сердце Марии.- | Совместный релиз: и -Качество: BDRip The.Book.of.Life.2014.1080p.BluRay.x264-GECKOS
Формат: AVI
Видео: 720x304 (2.37:1), 23.976 fps, XviD ~2138 kbps, 0.41 bit/pixel
Аудио 1: 48 kHz, AC3, 3/2 (L,C,R,l,r) + LFE ch, ~384 kbps Rus Dub iTunes
Аудио 2: 48 kHz, AC3, 2/0 (L,R) ch, ~192 kbps Ukr Dub iTunes
Аудио 3: 48 kHz, AC3, 3/2 (L,C,R,l,r) + LFE ch, ~384 kbps Eng
Аудио 4: 48 kHz, AC3, 3/2 (L,C,R,l,r) + LFE ch, ~384 kbps Rus DVO Отдельным файлом
Субтитры: Rus, Ukr, Eng - SRT-Спасибо holoff за русские дорожки и субтитры!

Отчет MI

GeneralComplete name : The Book of Life_BDRip.2014_Olu6ka_2.20.aviFormat : AVIFormat/Info : Audio Video InterleaveFormat profile : OpenDMLFile size : 2.07 GiBDuration : 1h 35mnOverall bit rate : 3 106 KbpsWriting application : VirtualDubModRus 1.5.10.2 (build 2542/release)Writing library : VirtualDubMod build 2542/release
VideoID : 0Format : MPEG-4 VisualFormat profile : Advanced [email protected] settings, BVOP : 1Format settings, QPel : NoFormat settings, GMC : No warppointsFormat settings, Matrix : CustomCodec ID : XVIDCodec ID/Hint : XviDDuration : 1h 35mnBit rate : 2 121 KbpsWidth : 720 pixelsHeight : 304 pixelsDisplay aspect ratio : 2.35:1Frame rate : 23.976 fpsColor space : YUVChroma subsampling : 4:2:0Bit depth : 8 bitsScan type : ProgressiveCompression mode : LossyBits/(Pixel*Frame) : 0.404Stream size : 1.41 GiB (68%)Writing library : XviD 73
Audio #1ID : 1Format : AC-3Format/Info : Audio Coding 3Mode extension : CM (complete main)Format settings, Endianness : BigCodec ID : 2000Duration : 1h 35mnBit rate mode : ConstantBit rate : 384 KbpsChannel count : 6 channelsChannel positions : Front: L C R, Side: L R, LFESampling rate : 48.0 KHzBit depth : 16 bitsCompression mode : LossyStream size : 262 MiB (12%)Alignment : Split accross interleavesInterleave, duration : 42 ms (1.00 video frame)Interleave, preload duration : 500 ms
Audio #2ID : 2Format : AC-3Format/Info : Audio Coding 3Mode extension : CM (complete main)Format settings, Endianness : BigCodec ID : 2000Duration : 1h 35mnBit rate mode : ConstantBit rate : 192 KbpsChannel count : 2 channelsChannel positions : Front: L RSampling rate : 48.0 KHzBit depth : 16 bitsCompression mode : LossyStream size : 131 MiB (6%)Alignment : Split accross interleavesInterleave, duration : 42 ms (1.00 video frame)Interleave, preload duration : 500 ms
Audio #3ID : 3Format : AC-3Format/Info : Audio Coding 3Mode extension : CM (complete main)Format settings, Endianness : BigCodec ID : 2000Duration : 1h 35mnBit rate mode : ConstantBit rate : 384 KbpsChannel count : 6 channelsChannel positions : Front: L C R, Side: L R, LFESampling rate : 48.0 KHzBit depth : 16 bitsCompression mode : LossyStream size : 262 MiB (12%)Alignment : Split accross interleavesInterleave, duration : 42 ms (1.00 video frame)Interleave, preload duration : 500 ms

Скриншоты


Книга жизни (The Book of Life) — американский компьютерный анимационный мультфильм производства Reel FX Creative Studios и распространяется компанией "20th Century Fox"
Продюсер: Гильермо дель Торо | Guillermo del Toro , Аарон Бергер, Брэд Букер


Display posts:    

Current time is: 01-Jun 03:04

All times are UTC ± 0


You cannot post new topics in this forum
You cannot reply to topics in this forum
You cannot edit your posts in this forum
You cannot delete your posts in this forum
You cannot vote in polls in this forum
You cannot attach files in this forum
You cannot download files in this forum

!ATTENTION!
The site does not give electronic versions of products, and is engaged only in a collecting and cataloguing of the references sent and published at a forum by our readers. If you are the legal owner of any submitted material and do not wish that the reference to it was in our catalogue, contact us and we shall immediately remove her. Files for an exchange on tracker are given by users of a site, and the administration does not bear the responsibility for their maintenance. The request to not fill in the files protected by copyrights, and also files of the illegal maintenance!