Важное объявление!
У Нас Все раздачи мультитрекерные, при нуле пиров в релизах, можете смело вставать на закачку!
 
Автор Сообщение

HUNTER

Стаж:
4 года 4 месяца
Сообщений:
56848

Репутация: 101

[+] [-]
Вне форума [Профиль] [ЛС]

--Kingsman: Секретная служба / Kingsman: The Secret Service-
Страна: Великобритания
Студии: Twentieth Century Fox Film Corporation, Marv Films, TSG Entertainment
Жанр: боевик, триллер, драма, криминал, детектив
Год выпуска: 2014
Продолжительность: 02:08:44-Перевод: Профессиональный (дублированный) BD EUR
Перевод 2: Одноголосый закадровый А.Матвеев
Cубтитры: Русские (форсированные), Русские, Английские (форсированные), Английские, Английские (SDH), украинские (полные)
Оригинальная аудиодорожка: английский-Режиссер: Мэттью Вон / Matthew Vaughn
В ролях: Тэрон Эджертон, Колин Фёрт, Сэмюэл Л. Джексон, Марк Стронг, Софи Куксон, Майкл Кейн, София Бутелла, Саманта Янус, Джофф Белл, Марк Хэмилл, Крис Хемсворт, Ван Лихом, Тан Вэй, Виола Дэвис, Холт МакКэллани, Энди Он, Ричи Костер, Кристиан Борл, Джон Ортис, Йорик ван Вагенинген
Описание: Эггси - молодой парень, который прошел службу в морской пехоте и имеет очень высокий уровень интеллекта. Он мог бы добиться многого, но выбрал другой путь и стал мелким преступником. Однажды он знакомится с Гарри Хартом, которому его отец когда-то спас жизнь. Этот человек решил сделать все возможное, чтобы сделать жизнь Эггси лучше и открыть для него новые возможности.-| Сэмпл | IMDB | КиноПоиск |
-Тип релиза: BDRip 1080p |NiP|
Контейнер: MKV
Видео: x.264, NTSC 23.976, 1920x804, 12600 кбит/с
Аудио: Русский (Дублированный), DTS, 6ch (L, C, R, Ls, Rs +LFE), 768 кбит/с |Лицензия, Blu-ray EUR|
Аудио 2: Русский (Профессиональный (один голос)), DTS, 6ch (L, C, R, Ls, Rs +LFE), 1536 кбит/с |А.Матвеев|
Аудио 3: Украинский (Дублированный), AC3, 6ch (L, C, R, Ls, Rs +LFE), 448 кбит/с |Лицензия, Blu-ray EUR|
Аудио 4: Английский (Оригинал), DTS, 6ch (L, C, R, Ls, Rs +LFE), 1536 кбит/с
Формат субтитров: softsub (SRT)
Главы: как на Blu-ray (36 шт.)

MediaInfo

Общее
Уникальный идентификатор : 216193344879251310435836887127703608482 (0xA2A552DBE8431162820AE237138ADCA2)
Полное имя : E:\2D MOVIES\Kingsman.The.Secret.Service.2014.1080p.BluRay.x264.Ukr.2xRus.Eng.ac3.dts.Subs.NiP.0dayTeam.mkv
Формат : Matroska
Версия формата : Version 2
Размер файла : 15,5 Гбайт
Продолжительность : 2 ч. 8 м.
Общий поток : 17,2 Мбит/сек
Дата кодирования : UTC 2015-06-02 17:24:57
Программа кодирования : mkvmerge v4.9.1 ('Ich will') built on Jul 11 2011 23:53:15
Библиотека кодирования : libebml v1.2.1 + libmatroska v1.1.1
DURATION : 02:00:05.615000000
NUMBER_OF_FRAMES : 1700
NUMBER_OF_BYTES : 56168
_STATISTICS_WRITING_APP : mkvmerge v7.9.0 ('Birds') 64bit
_STATISTICS_WRITING_DATE_UTC : 2015-05-31 07:41:09
_STATISTICS_TAGS : BPS DURATION NUMBER_OF_FRAMES NUMBER_OF_BYTES
Видео
Идентификатор : 1
Формат : AVC
Формат/Информация : Advanced Video Codec
Профиль формата : High@L4.1
Параметр CABAC формата : Да
Параметр ReFrames формата : 5 кадров
Идентификатор кодека : V_MPEG4/ISO/AVC
Продолжительность : 2 ч. 8 м.
Битрейт : 12,6 Мбит/сек
Ширина : 1920 пикселей
Высота : 804 пикселя
Соотношение сторон : 2,40:1
Режим частоты кадров : Постоянный
Частота кадров : 23,976 кадра/сек
Цветовое пространство : YUV
Субдискретизация насыщенности : 4:2:0
Битовая глубина : 8 бит
Тип развёртки : Прогрессивная
Бит/(Пиксели*Кадры) : 0.341
Размер потока : 11,3 Гбайт (73%)
Библиотека кодирования : x264 core 146 r2538kMod 121396c
Настройки программы : cabac=1 / ref=5 / deblock=1:-3:-3 / analyse=0x3:0x133 / me=esa / subme=11 / psy=1 / fade_compensate=0.00 / psy_rd=1.00:0.00 / mixed_ref=1 / me_range=24 / chroma_me=1 / trellis=2 / 8x8dct=1 / cqm=0 / deadzone=21,11 / fast_pskip=0 / chroma_qp_offset=-2 / threads=24 / lookahead_threads=6 / sliced_threads=0 / nr=0 / decimate=1 / interlaced=0 / bluray_compat=0 / constrained_intra=0 / fgo=0 / bframes=16 / b_pyramid=2 / b_adapt=2 / b_bias=0 / direct=3 / weightb=1 / open_gop=0 / weightp=2 / keyint=250 / keyint_min=23 / scenecut=40 / intra_refresh=0 / rc=crf / mbtree=0 / crf=16.0000 / qcomp=0.75 / qpmin=0 / qpmax=69 / qpstep=4 / ip_ratio=1.40 / pb_ratio=1.30 / aq=1:0.75 / zones=1325,2076,b=1.8/6596,6967,b=1.8/8349,8355,b=1.2/8515,8522,b=1.2/11116,11430,b=1.2/26517,26611,b=1.6/54545,54581,b=1.2/70440,70491,b=1.6/70982,71113,b=1.4/71362,71397,b=1.4/71462,71505,b=1.2/71546,71575,b=1.2/71737,71764,b=1.4/71790,71802,b=1.4/71887,72052,b=1.4/72313,72401,b=1.4/72713,72743,b=1.2/72824,72904,b=1.4/73267,73283,b=1.4/73748,73824,b=1.4/73888,73921,b=1.4/73949,73976,b=1.4/74349,74400,b=1.4/74493,74534,b=1.4/74565,74593,b=1.6/74643,74704,b=1.2/74742,74789,b=1.2/75707,75724,b=1.2/76035,76259,b=1.2/76725,76831,b=1.2/76951,77097,b=1.2/86079,86111,b=1.6/87311,87339,b=1.4/113881,113898,b=1.4/121651,121747,b=1.2/130515,130592,b=1.4/135460,135506,b=1.2/143534,143540,b=1.2/143768,143855,b=1.2/144371,144387,b=1.4/149520,149610,b=1.2/153798,153829,b=1.2/154261,154283,b=1.4/154581,154622,b=1.2
Язык : English
Default : Да
Forced : Нет
Коэффициенты матрицы : BT.709
DURATION : 02:08:44.175000000
NUMBER_OF_FRAMES : 185195
NUMBER_OF_BYTES : 12498985264
_STATISTICS_WRITING_APP : mkvmerge v7.9.0 ('Birds') 64bit
_STATISTICS_WRITING_DATE_UTC : 2015-05-31 07:41:09
_STATISTICS_TAGS : BPS DURATION NUMBER_OF_FRAMES NUMBER_OF_BYTES
Аудио #1
Идентификатор : 2
Формат : DTS
Формат/Информация : Digital Theater Systems
Режим : 16
Параметр Endianness формата : Big
Идентификатор кодека : A_DTS
Продолжительность : 2 ч. 8 м.
Вид битрейта : Постоянный
Битрейт : 768 Кбит/сек
Каналы : 6 каналов
Расположение каналов : Front: L C R, Side: L R, LFE
Частота : 48,0 КГц
Битовая глубина : 24 бит
Метод сжатия : С потерями
Размер потока : 707 Мбайт (4%)
Заголовок : Лицензия, Blu-ray EUR
Язык : Russian
Default : Да
Forced : Нет
Аудио #2
Идентификатор : 3
Формат : DTS
Формат/Информация : Digital Theater Systems
Режим : 16
Параметр Endianness формата : Big
Идентификатор кодека : A_DTS
Продолжительность : 2 ч. 8 м.
Вид битрейта : Постоянный
Битрейт : 1509 Кбит/сек
Каналы : 6 каналов
Расположение каналов : Front: L C R, Side: L R, LFE
Частота : 48,0 КГц
Битовая глубина : 24 бит
Метод сжатия : С потерями
Размер потока : 1,36 Гбайт (9%)
Заголовок : А.Матвеев
Язык : Russian
Default : Нет
Forced : Нет
Аудио #3
Идентификатор : 4
Формат : AC-3
Формат/Информация : Audio Coding 3
Расширение режима : CM (complete main)
Параметр Endianness формата : Big
Идентификатор кодека : A_AC3
Продолжительность : 2 ч. 8 м.
Вид битрейта : Постоянный
Битрейт : 448 Кбит/сек
Каналы : 6 каналов
Расположение каналов : Front: L C R, Side: L R, LFE
Частота : 48,0 КГц
Битовая глубина : 16 бит
Метод сжатия : С потерями
Размер потока : 413 Мбайт (3%)
Заголовок : Лицензия, Blu-ray EUR
Язык : Ukrainian
Default : Нет
Forced : Нет
Аудио #4
Идентификатор : 5
Формат : DTS
Формат/Информация : Digital Theater Systems
Профиль формата : ES
Режим : 16
Параметр Endianness формата : Big
Идентификатор кодека : A_DTS
Продолжительность : 2 ч. 8 м.
Вид битрейта : Постоянный
Битрейт : 1509 Кбит/сек
Каналы : 6 каналов
Расположение каналов : Front: L C R, Side: L R, LFE
Частота : 48,0 КГц
Битовая глубина : 24 бит
Метод сжатия : С потерями
Размер потока : 1,36 Гбайт (9%)
Язык : English
Default : Нет
Forced : Нет
Текст #1
Идентификатор : 6
Формат : UTF-8
Идентификатор кодека : S_TEXT/UTF8
Идентификатор кодека/Информация : UTF-8 Plain Text
Заголовок : Forced
Язык : Russian
Default : Да
Forced : Нет
Текст #2
Идентификатор : 7
Формат : UTF-8
Идентификатор кодека : S_TEXT/UTF8
Идентификатор кодека/Информация : UTF-8 Plain Text
Язык : Russian
Default : Нет
Forced : Нет
Текст #3
Идентификатор : 8
Формат : UTF-8
Идентификатор кодека : S_TEXT/UTF8
Идентификатор кодека/Информация : UTF-8 Plain Text
Язык : Ukrainian
Default : Нет
Forced : Нет
Текст #4
Идентификатор : 9
Формат : UTF-8
Идентификатор кодека : S_TEXT/UTF8
Идентификатор кодека/Информация : UTF-8 Plain Text
Заголовок : Forced
Язык : English
Default : Нет
Forced : Нет
Текст #5
Идентификатор : 10
Формат : UTF-8
Идентификатор кодека : S_TEXT/UTF8
Идентификатор кодека/Информация : UTF-8 Plain Text
Язык : English
Default : Нет
Forced : Нет
Текст #6
Идентификатор : 11
Формат : UTF-8
Идентификатор кодека : S_TEXT/UTF8
Идентификатор кодека/Информация : UTF-8 Plain Text
Заголовок : SDH
Язык : English
Default : Нет
Forced : Нет
Меню
00:00:00.000 : en:00:00:00.000
00:02:55.467 : en:00:02:55.467
00:04:50.665 : en:00:04:50.665
00:08:34.180 : en:00:08:34.180
00:11:49.876 : en:00:11:49.876
00:13:04.575 : en:00:13:04.575
00:15:57.999 : en:00:15:57.999
00:18:25.980 : en:00:18:25.980
00:23:48.052 : en:00:23:48.052
00:25:37.327 : en:00:25:37.327
00:29:53.750 : en:00:29:53.750
00:32:25.277 : en:00:32:25.277
00:33:47.901 : en:00:33:47.901
00:37:01.469 : en:00:37:01.469
00:38:49.619 : en:00:38:49.619
00:42:46.022 : en:00:42:46.022
00:45:03.868 : en:00:45:03.868
00:47:42.276 : en:00:47:42.276
00:53:47.558 : en:00:53:47.558
00:57:28.195 : en:00:57:28.195
01:03:29.514 : en:01:03:29.514
01:05:21.876 : en:01:05:21.876
01:10:27.932 : en:01:10:27.932
01:13:10.219 : en:01:13:10.219
01:15:01.956 : en:01:15:01.956
01:16:58.197 : en:01:16:58.197
01:23:03.812 : en:01:23:03.812
01:25:57.402 : en:01:25:57.402
01:31:21.309 : en:01:31:21.309
01:34:38.798 : en:01:34:38.798
01:36:27.949 : en:01:36:27.949
01:39:59.994 : en:01:39:59.994
01:44:07.867 : en:01:44:07.867
01:50:31.083 : en:01:50:31.083
01:58:21.219 : en:01:58:21.219
01:59:38.463 : en:01:59:38.463

Цитата

Озвучка матвеева доступна благодаря Заказ - dikii
Работа со звуком - Переводман

_________________
Показать сообщения:    

Текущее время: Сегодня 06:19

Часовой пояс: GMT



Вы не можете начинать темы
Вы не можете отвечать на сообщения
Вы не можете редактировать свои сообщения
Вы не можете удалять свои сообщения
Вы не можете голосовать в опросах
Вы не можете прикреплять файлы к сообщениям
Вы не можете скачивать файлы
Наши партнеры: интернет магазин Ивановского трикотажа textilla.ru