Важное объявление!
У Нас Все раздачи мультитрекерные, при нуле пиров в релизах, можете смело вставать на закачку!
 
Автор Сообщение

HUNTER

Стаж:
4 года 4 месяца
Сообщений:
56765

Репутация: 101

[+] [-]
Вне форума [Профиль] [ЛС]

Kingsman: Секретная служба / Kingsman: The Secret Service-
Год выпуска: 2014
Страна: Великобритания
Жанр: боевик, комедия, криминал, приключения
Продолжительность: 02:08:44
Перевод: Профессиональный (полное дублирование)
+ Одноголосый закадровый А.Матвеев
Оригинальная звуковая дорожка: English
Субтитры: Russian (Forced, iTunes), Russian (iTunes), Ukrainian (iTunes), English-Режиссер: Мэттью Вон / Matthew Vaughn
В ролях: Тэрон Эджертон, Колин Фёрт, Сэмюэл Л. Джексон, Марк Стронг, Софи Куксон, Майкл Кейн, София Бутелла, Саманта Янус, Джофф Белл, Марк Хэмилл
О фильме: Эггси — молодой парень, который прошел службу в морской пехоте и имеет очень высокий уровень интеллекта. Он мог бы добиться многого, но выбрал другой путь и стал мелким преступником. Однажды он знакомится с Гарри Хартом, которому его отец когда-то спас жизнь. Этот человек решил сделать все возможное, чтобы сделать жизнь Эггси лучше и открыть для него новые возможности.
Гарри рассказал ему, что является агентом секретной независимой организации, которая стоит на защите всего мира. Он предложил парню пройти обучение и стать новым членом их команды. Эггси принял предложение Харта, но сможет ли он справиться со всеми испытаниями и оправдать его надежды?..-DON!
Релиз:
Тип релиза: BDRip 720p
Контейнер: MKV
Видео: 1280x536 at 23.976 fps, x264, ~5630 kbps avg
Аудио #01: Russian: 48 kHz, DTS 5.1, ~768.00 kbps avg |Дубляж, Blu-ray EUR|
Аудио #02: Russian: 48 kHz, AC3, 3/2 (L,C,R,l,r) + LFE ch, ~448.00 kbps avg |Одноголосый закадровый, А.Матвеев|
Аудио #03: Ukrainian: 48 kHz, AC3, 3/2 (L,C,R,l,r) + LFE ch, ~448.00 kbps avg |Дубляж, Blu-ray EUR|
Аудио #04: English: 48 kHz, DTS 5.1, ~1536.00 kbps avg
Семпл-
-

mInfo


Формат : Matroska
Версия формата : Version 4 / Version 2
Размер файла : 7,92 Гбайт
Продолжительность : 2 ч. 8 м.
Общий поток : 8810 Кбит/сек
Название фильма : Kingsman: The Secret Service (2014)
Дата кодирования : UTC 2015-05-31 10:30:56
Программа кодирования : mkvmerge v7.0.0 ('Where We Going') 32bit built on Jun 9 2014 15:08:34
Библиотека кодирования : libebml v1.3.0 + libmatroska v1.4.1
Видео
Идентификатор : 1
Формат : AVC
Формат/Информация : Advanced Video Codec
Профиль формата : High@L4.1
Параметр CABAC формата : Да
Параметр ReFrames формата : 12 кадров
Идентификатор кодека : V_MPEG4/ISO/AVC
Продолжительность : 2 ч. 8 м.
Битрейт : 5461 Кбит/сек
Ширина : 1280 пикселей
Высота : 536 пикселей
Соотношение сторон : 2,40:1
Режим частоты кадров : Постоянный
Частота кадров : 23,976 кадра/сек
Цветовое пространство : YUV
Субдискретизация насыщенности : 4:2:0
Битовая глубина : 8 бит
Тип развёртки : Прогрессивная
Бит/(Пиксели*Кадры) : 0.332
Размер потока : 4,91 Гбайт (62%)
Заголовок : Release for HDCLUB
Библиотека кодирования : x264 core 146 r2538kMod 121396c
Настройки программы : cabac=1 / ref=12 / deblock=1:-3:-3 / analyse=0x3:0x113 / me=umh / subme=11 / psy=1 / fade_compensate=0.00 / psy_rd=1.00:0.00 / mixed_ref=1 / me_range=32 / chroma_me=1 / trellis=2 / 8x8dct=1 / cqm=0 / deadzone=21,11 / fast_pskip=0 / chroma_qp_offset=-3 / threads=12 / lookahead_threads=3 / sliced_threads=0 / nr=0 / decimate=1 / interlaced=0 / bluray_compat=0 / constrained_intra=0 / fgo=0 / bframes=16 / b_pyramid=2 / b_adapt=2 / b_bias=0 / direct=3 / weightb=1 / open_gop=0 / weightp=2 / keyint=230 / keyint_min=23 / scenecut=40 / intra_refresh=0 / rc_lookahead=40 / rc=crf / mbtree=0 / crf=15.0000 / qcomp=0.70 / qpmin=0 / qpmax=69 / qpstep=4 / vbv_maxrate=50000 / vbv_bufsize=62500 / crf_max=0.0 / nal_hrd=none / filler=0 / ip_ratio=1.40 / pb_ratio=1.30 / aq=3:0.80
Язык : English
Default : Да
Forced : Нет
Аудио #1
Идентификатор : 2
Формат : DTS
Формат/Информация : Digital Theater Systems
Режим : 16
Параметр Endianness формата : Big
Идентификатор кодека : A_DTS
Продолжительность : 2 ч. 8 м.
Вид битрейта : Постоянный
Битрейт : 768 Кбит/сек
Каналы : 6 каналов
Расположение каналов : Front: L C R, Side: L R, LFE
Частота : 48,0 КГц
Битовая глубина : 24 бит
Метод сжатия : С потерями
Размер потока : 707 Мбайт (9%)
Заголовок : DTS 5.1 @ 768 kbps - Дубляж
Язык : Russian
Default : Да
Forced : Нет
Аудио #2
Идентификатор : 3
Формат : AC-3
Формат/Информация : Audio Coding 3
Расширение режима : CM (complete main)
Параметр Endianness формата : Big
Идентификатор кодека : A_AC3
Продолжительность : 2 ч. 8 м.
Вид битрейта : Постоянный
Битрейт : 448 Кбит/сек
Каналы : 6 каналов
Расположение каналов : Front: L C R, Side: L R, LFE
Частота : 48,0 КГц
Битовая глубина : 16 бит
Метод сжатия : С потерями
Размер потока : 413 Мбайт (5%)
Заголовок : DD 5.1 @ 448 kbps - А.Матвеев
Язык : Russian
Default : Нет
Forced : Нет
Аудио #3
Идентификатор : 4
Формат : AC-3
Формат/Информация : Audio Coding 3
Расширение режима : CM (complete main)
Параметр Endianness формата : Big
Идентификатор кодека : A_AC3
Продолжительность : 2 ч. 8 м.
Вид битрейта : Постоянный
Битрейт : 448 Кбит/сек
Каналы : 6 каналов
Расположение каналов : Front: L C R, Side: L R, LFE
Частота : 48,0 КГц
Битовая глубина : 16 бит
Метод сжатия : С потерями
Размер потока : 413 Мбайт (5%)
Заголовок : DD 5.1 @ 448 kbps - Дубляж
Язык : Ukrainian
Default : Нет
Forced : Нет
Аудио #4
Идентификатор : 5
Формат : DTS
Формат/Информация : Digital Theater Systems
Профиль формата : ES
Режим : 16
Параметр Endianness формата : Big
Идентификатор кодека : A_DTS
Продолжительность : 2 ч. 8 м.
Вид битрейта : Постоянный
Битрейт : 1509 Кбит/сек
Каналы : 6 каналов
Расположение каналов : Front: L C R, Side: L R, LFE
Частота : 48,0 КГц
Битовая глубина : 24 бит
Метод сжатия : С потерями
Размер потока : 1,36 Гбайт (17%)
Заголовок : DTS 5.1 @ 1536 kbps
Язык : English
Default : Нет
Forced : Нет
Текст #1
Идентификатор : 6
Формат : UTF-8
Идентификатор кодека : S_TEXT/UTF8
Идентификатор кодека/Информация : UTF-8 Plain Text
Заголовок : Forced
Язык : Russian
Default : Да
Forced : Да
Текст #2
Идентификатор : 7
Формат : UTF-8
Идентификатор кодека : S_TEXT/UTF8
Идентификатор кодека/Информация : UTF-8 Plain Text
Заголовок : Full
Язык : Russian
Default : Нет
Forced : Нет
Текст #3
Идентификатор : 8
Формат : UTF-8
Идентификатор кодека : S_TEXT/UTF8
Идентификатор кодека/Информация : UTF-8 Plain Text
Заголовок : Full
Язык : Ukrainian
Default : Нет
Forced : Нет
Текст #4
Идентификатор : 9
Формат : UTF-8
Идентификатор кодека : S_TEXT/UTF8
Идентификатор кодека/Информация : UTF-8 Plain Text
Заголовок : Forced
Язык : English
Default : Нет
Forced : Нет
Текст #5
Идентификатор : 10
Формат : UTF-8
Идентификатор кодека : S_TEXT/UTF8
Идентификатор кодека/Информация : UTF-8 Plain Text
Заголовок : Full
Язык : English
Default : Нет
Forced : Нет
Меню
00:00:00.000 : en:00:00:00.000
00:02:55.467 : en:00:02:55.467
00:04:50.665 : en:00:04:50.665
00:08:34.180 : en:00:08:34.180
00:11:49.876 : en:00:11:49.876
00:13:04.575 : en:00:13:04.575
00:15:57.999 : en:00:15:57.999
00:18:25.980 : en:00:18:25.980
00:23:48.052 : en:00:23:48.052
00:25:37.327 : en:00:25:37.327
00:29:53.750 : en:00:29:53.750
00:32:25.277 : en:00:32:25.277
00:33:47.901 : en:00:33:47.901
00:37:01.469 : en:00:37:01.469
00:38:49.619 : en:00:38:49.619
00:42:46.022 : en:00:42:46.022
00:45:03.868 : en:00:45:03.868
00:47:42.276 : en:00:47:42.276
00:53:47.558 : en:00:53:47.558
00:57:28.195 : en:00:57:28.195
01:03:29.514 : en:01:03:29.514
01:05:21.876 : en:01:05:21.876
01:10:27.932 : en:01:10:27.932
01:13:10.219 : en:01:13:10.219
01:15:01.956 : en:01:15:01.956
01:16:58.197 : en:01:16:58.197
01:23:03.812 : en:01:23:03.812
01:25:57.402 : en:01:25:57.402
01:31:21.309 : en:01:31:21.309
01:34:38.798 : en:01:34:38.798
01:36:27.949 : en:01:36:27.949
01:39:59.994 : en:01:39:59.994
01:44:07.867 : en:01:44:07.867
01:50:31.083 : en:01:50:31.083
01:58:21.219 : en:01:58:21.219
01:59:38.463 : en:01:59:38.463

-
Цитата:
Цитата:

* Сохранены оригинальные главы.
* Заказ перевода А.Матвеева - dikii. Работа со звуком - Переводман.
* Рип с европейского издания, ничего не вырезано.

_________________
Показать сообщения:    

Текущее время: Сегодня 22:10

Часовой пояс: GMT



Вы не можете начинать темы
Вы не можете отвечать на сообщения
Вы не можете редактировать свои сообщения
Вы не можете удалять свои сообщения
Вы не можете голосовать в опросах
Вы не можете прикреплять файлы к сообщениям
Вы не можете скачивать файлы