Ивановский Торрент трекер
Яндекс.Погода
 

[Quote]
HUNTER

-Kingsman: Золотое кольцо / Kingsman: The Golden Circle-«Reports of my death have been greatly exaggerated»- Страна: Великобритания, США
Студия: 20th Century Fox Film Corporation, Marv Films, Shangri-La Entertainment, TSG Entertainment
Жанр: боевик, драма
Год выпуска: 2017
Продолжительность: 02:21:02-Перевод: Профессиональный (дублированный) |BD EUR|
Перевод 2: Авторский (одноголосый закадровый) |Юрий Сербин|
Субтитры: русские (форсированные, полные + форсированные, полные), украинские (полные, форсированные), английские (полные, форсированные, SDH)
Оригинальная аудиодорожка: английский-Режиссер: Мэттью Вон / Matthew Vaughn-В ролях: Колин Фёрт, Тэрон Эджертон, Эдвард Холкрофт, Гордон Александр, Марк Стронг, Ханна Альстрём, Кэлвин Демба, Томас Тургус, Тоби Бакаре, Джулианна Мур
Описание: Когда штаб-квартиры секретной службы «Kingsman» уничтожены, и весь мир оказался в заложниках у неизвестных, британские суперагенты обнаруживают, что в один день вместе с их организацией была еще создана американская разведка — «Statesman». Теперь эти две элитные спецслужбы должны объединиться и бросить вызов общему безжалостному врагу, чтобы спасти мир, то есть заняться тем, что для Эггси становится обычным делом…-| Сэмпл | IMDB | КиноПоиск |
-Тип релиза: BDRip 1080p |DON|
Контейнер: MKV
Видео: 1920x804 (2.35:1), 23.976 fps, 14,400 kbps
Аудио: DTS 5.1 @ 768 kbps, (6 ch), 48 kHz |Лицензия, Blu-ray EUR|
Аудио 2: DTS 5.1 @ 1509 kb/s, (6 ch), 48 kHz |Авторский (одноголосый закадровый) Юрий Сербин|
Аудио 3: DD 5.1 @ 448 kbps, (6 ch), 48 kHz |Украинский Дублированный iTunes|
Аудио 4: DTS, 1509 kb/s (6 ch), 48 kHz |Английский Оригинал|
Формат субтитров: softsub (SRT)

MediaInfo

Общее
Уникальный идентификатор : 254684421542624875557425462328053749200 (0xBF9A6F752E4DF64D9B9F5AEDB26855D0)
Полное имя : D:\kingsman\KINGSMAN_TGLDC_2017_BDRip_1080p_BLUEBIRD.mkv
Формат : Matroska
Версия формата : Version 4 / Version 2
Размер файла : 18,4 Гбайт
Продолжительность : 2 ч. 21 м.
Общий поток : 18,6 Мбит/сек
Название фильма : KINGSMAN_TGLDC_2017_BDRip_1080p_BLUEBIRD
Дата кодирования : UTC 2018-02-12 16:26:48
Программа кодирования : mkvmerge v20.0.0 ('I Am The Sun') 64-bit
Библиотека кодирования : libebml v1.3.5 + libmatroska v1.4.8
Видео
Идентификатор : 1
Формат : AVC
Формат/Информация : Advanced Video Codec
Профиль формата : [email protected]
Параметр CABAC формата : Да
Параметр ReFrames формата : 5 кадров
Идентификатор кодека : V_MPEG4/ISO/AVC
Продолжительность : 2 ч. 21 м.
Битрейт : 14,4 Мбит/сек
Ширина : 1920 пикселей
Высота : 804 пикселя
Соотношение сторон : 2,40:1
Режим частоты кадров : Постоянный
Частота кадров : 23,976 (24000/1001) кадра/сек
Цветовое пространство : YUV
Субдискретизация насыщенности : 4:2:0
Битовая глубина : 8 бит
Тип развёртки : Прогрессивная
Бит/(Пиксели*Кадры) : 0.389
Размер потока : 14,2 Гбайт (77%)
Заголовок : KINGSMAN_TGC_BDRip_1080p-BLUEBIRD
Библиотека кодирования : x264 core 152 r2851+58 429492e t_mod_Custom [[email protected] X86_64]
Настройки программы : cabac=1 / ref=5 / deblock=1:-3:-3 / analyse=0x3:0x133 / me=tesa / subme=11 / psy=1 / fade_compensate=0.00 / psy_rd=1.00:0.00 / mixed_ref=1 / me_range=24 / chroma_me=1 / trellis=2 / 8x8dct=1 / cqm=0 / deadzone=21,11 / fast_pskip=0 / chroma_qp_offset=-2 / threads=12 / lookahead_threads=2 / sliced_threads=0 / nr=0 / decimate=0 / interlaced=0 / bluray_compat=0 / constrained_intra=0 / fgo=0 / bframes=9 / b_pyramid=2 / b_adapt=2 / b_bias=0 / direct=3 / weightb=1 / open_gop=0 / weightp=2 / keyint=250 / keyint_min=23 / scenecut=40 / intra_refresh=0 / rc_lookahead=60 / rc=crf / mbtree=0 / crf=15.7000 / qcomp=0.65 / qpmin=0:0:0 / qpmax=69:69:69 / qpstep=4 / vbv_maxrate=62500 / vbv_bufsize=78125 / crf_max=0.0 / nal_hrd=none / filler=0 / ip_ratio=1.30 / pb_ratio=1.20 / aq=3:0.80 / aq-sensitivity=10.00 / aq-factor=1.00:1.00:1.00 / aq2=0 / aq3=0 / zones=1879,5914,crf=15.2/5915,5974,crf=12.7/5975,8530,crf=15.2/8644,10551,crf=15.2/10664,11651,crf=15.2/11652,11799,crf=12.7/11883,12008,crf=13.7/12009,13118,crf=14.7/32366,32479,crf=15.2/32480,35272,crf=15.5/35536,38599,crf=15.5/40900,43737,crf=15.2/62413,62477,crf=11.7/62477,62932,crf=15.2/62933,63017,crf=14.7/63188,63347,crf=14.7/63387,64129,crf=15.2/64318,64377,crf=15.2/65190,68806,crf=15.5/70937,71023,crf=13.7/71024,71102,crf=15.2/82998,83590,crf=15.2/83591,84107,crf=15.5/84349,84466,crf=13.7/84596,84683,crf=13.7/84684,86089,crf=15.5/86090,86121,crf=12.7/86122,88042,crf=15.5/88043,88722,crf=10/89091,90303,crf=15.5/94031,94163,crf=13.7/95503,95565,crf=13.7/124522,124566,crf=13.7/124824,124891,crf=11/124981,125007,crf=10/129972,130041,crf=12.7/132189,132221,crf=11.7/132322,132358,crf=12.7/132472,132521,crf=13.7/132818,132856,crf=11.7/132886,132938,crf=12.7/133201,133213,crf=12.7/137069,137123,crf=13.7/137952,137995,crf=13.7/141281,141329,crf=12.7/141848,141920,crf=12.7/142666,142731,crf=12.7/142999,143054,crf=12.7/145510,145647,crf=13.7/160895,160965,crf=15.2/161311,161388,crf=14.7/161551,161650,crf=14.7/161987,162027,crf=13.7/162037,162066,crf=13.7/162428,162455,crf=12.7/162456,162548,crf=14.7/164168,164185,crf=12.7/164245,164285,crf=11.7/165558,165595,crf=12.7/167594,167630,crf=13.7/178026,178103,crf=11/193705,193720,crf=12.7
Язык : English
Default : Да
Forced : Нет
Цветовой диапазон : Limited
Коэффициенты матрицы : BT.709
Аудио #1
Идентификатор : 2
Формат : DTS
Формат/Информация : Digital Theater Systems
Режим : 16
Параметр Endianness формата : Big
Идентификатор кодека : A_DTS
Продолжительность : 2 ч. 21 м.
Вид битрейта : Постоянный
Битрейт : 768 Кбит/сек
Каналы : 6 каналов
Расположение каналов : Front: L C R, Side: L R, LFE
Частота : 48,0 КГц
Частота кадров : 93,750 кадра/сек (512 spf)
Битовая глубина : 24 бит
Метод сжатия : С потерями
Размер потока : 775 Мбайт (4%)
Заголовок : [DUB] DTS 5.1 @ 768 kbps
Язык : Russian
Default : Да
Forced : Нет
Аудио #2
Идентификатор : 3
Формат : DTS
Формат/Информация : Digital Theater Systems
Режим : 16
Параметр Endianness формата : Big
Идентификатор кодека : A_DTS
Продолжительность : 2 ч. 21 м.
Вид битрейта : Постоянный
Битрейт : 1509 Кбит/сек
Каналы : 6 каналов
Расположение каналов : Front: L C R, Side: L R, LFE
Частота : 48,0 КГц
Частота кадров : 93,750 кадра/сек (512 spf)
Битовая глубина : 24 бит
Метод сжатия : С потерями
Размер потока : 1,49 Гбайт (8%)
Заголовок : [AVO] DTS 5.1 @ 1509 kbps (Serbin)
Язык : Russian
Default : Нет
Forced : Нет
Аудио #3
Идентификатор : 4
Формат : AC-3
Формат/Информация : Audio Coding 3
Параметр Endianness формата : Big
Идентификатор кодека : A_AC3
Продолжительность : 2 ч. 21 м.
Вид битрейта : Постоянный
Битрейт : 448 Кбит/сек
Каналы : 6 каналов
Расположение каналов : Front: L C R, Side: L R, LFE
Частота : 48,0 КГц
Частота кадров : 31,250 кадров/сек (1536 spf)
Битовая глубина : 16 бит
Метод сжатия : С потерями
Размер потока : 452 Мбайт (2%)
Заголовок : [DUB] DD 5.1 @ 448 kbps
Язык : Ukrainian
ServiceKind/String : Complete Main
Default : Нет
Forced : Нет
Аудио #4
Идентификатор : 5
Формат : DTS
Формат/Информация : Digital Theater Systems
Режим : 16
Параметр Endianness формата : Big
Идентификатор кодека : A_DTS
Продолжительность : 2 ч. 21 м.
Вид битрейта : Постоянный
Битрейт : 1509 Кбит/сек
Каналы : 6 каналов
Расположение каналов : Front: L C R, Side: L R, LFE
Частота : 48,0 КГц
Частота кадров : 93,750 кадра/сек (512 spf)
Битовая глубина : 24 бит
Метод сжатия : С потерями
Размер потока : 1,49 Гбайт (8%)
Заголовок : [ORIGINAL] DTS 5.1 @ 1509 kbps
Язык : English
Default : Нет
Forced : Нет
Текст #1
Идентификатор : 6
Формат : UTF-8
Идентификатор кодека : S_TEXT/UTF8
Идентификатор кодека/Информация : UTF-8 Plain Text
Продолжительность : 2 ч. 19 м.
Битрейт : 0 бит/сек
ElementCount : 14
Размер потока : 418 байт (0%)
Заголовок : Forced
Язык : Russian
Default : Да
Forced : Нет
Текст #2
Идентификатор : 7
Формат : UTF-8
Идентификатор кодека : S_TEXT/UTF8
Идентификатор кодека/Информация : UTF-8 Plain Text
Продолжительность : 2 ч. 19 м.
Битрейт : 81 бит/сек
ElementCount : 1687
Размер потока : 83,4 Кбайт (0%)
Заголовок : Full-length
Язык : Russian
Default : Нет
Forced : Нет
Текст #3
Идентификатор : 8
Формат : UTF-8
Идентификатор кодека : S_TEXT/UTF8
Идентификатор кодека/Информация : UTF-8 Plain Text
Продолжительность : 2 ч. 19 м.
Битрейт : 81 бит/сек
ElementCount : 1674
Размер потока : 83,0 Кбайт (0%)
Заголовок : Full
Язык : Russian
Default : Нет
Forced : Нет
Текст #4
Идентификатор : 9
Формат : UTF-8
Идентификатор кодека : S_TEXT/UTF8
Идентификатор кодека/Информация : UTF-8 Plain Text
Продолжительность : 2 ч. 19 м.
Битрейт : 85 бит/сек
ElementCount : 1727
Размер потока : 87,3 Кбайт (0%)
Заголовок : Full-length
Язык : Ukrainian
Default : Нет
Forced : Нет
Текст #5
Идентификатор : 10
Формат : UTF-8
Идентификатор кодека : S_TEXT/UTF8
Идентификатор кодека/Информация : UTF-8 Plain Text
Продолжительность : 1 ч. 58 м.
Битрейт : 0 бит/сек
ElementCount : 7
Размер потока : 296 байт (0%)
Заголовок : Forced
Язык : Ukrainian
Default : Нет
Forced : Нет
Текст #6
Идентификатор : 11
Формат : UTF-8
Идентификатор кодека : S_TEXT/UTF8
Идентификатор кодека/Информация : UTF-8 Plain Text
Продолжительность : 2 ч. 13 м.
Битрейт : 55 бит/сек
ElementCount : 1882
Размер потока : 53,9 Кбайт (0%)
Заголовок : Full-length
Язык : English
Default : Нет
Forced : Нет
Текст #7
Идентификатор : 12
Формат : UTF-8
Идентификатор кодека : S_TEXT/UTF8
Идентификатор кодека/Информация : UTF-8 Plain Text
Продолжительность : 2 ч. 13 м.
Битрейт : 60 бит/сек
ElementCount : 2142
Размер потока : 58,7 Кбайт (0%)
Заголовок : SDH
Язык : English
Default : Нет
Forced : Нет
Текст #8
Идентификатор : 13
Формат : UTF-8
Идентификатор кодека : S_TEXT/UTF8
Идентификатор кодека/Информация : UTF-8 Plain Text
Продолжительность : 1 ч. 0 м.
Битрейт : 0 бит/сек
ElementCount : 6
Размер потока : 125 байт (0%)
Заголовок : Forced
Язык : English
Default : Нет
Forced : Нет
Меню
00:00:00.000 : en:00:00:00.000
00:04:51.958 : en:00:04:51.958
00:09:39.454 : en:00:09:39.454
00:13:36.607 : en:00:13:36.607
00:18:54.300 : en:00:18:54.300
00:24:57.287 : en:00:24:57.287
00:28:43.347 : en:00:28:43.347
00:32:52.304 : en:00:32:52.304
00:39:18.731 : en:00:39:18.731
00:43:21.849 : en:00:43:21.849
00:48:26.570 : en:00:48:26.570
00:53:54.106 : en:00:53:54.106
00:58:31.258 : en:00:58:31.258
01:05:04.901 : en:01:05:04.901
01:09:52.522 : en:01:09:52.522
01:13:34.744 : en:01:13:34.744
01:19:41.860 : en:01:19:41.860
01:23:45.103 : en:01:23:45.103
01:28:55.288 : en:01:28:55.288
01:33:25.225 : en:01:33:25.225
01:40:14.759 : en:01:40:14.759
01:45:03.255 : en:01:45:03.255
01:49:38.489 : en:01:49:38.489
01:55:15.992 : en:01:55:15.992
02:01:40.835 : en:02:01:40.835
02:05:44.036 : en:02:05:44.036
02:12:36.407 : en:02:12:36.407
02:15:15.274 : en:02:15:15.274

Скриншоты

Торрент-файл обновлен - замена субтитров


Display posts:    

Current time is: 14-Jul 09:03

All times are UTC ± 0


You cannot post new topics in this forum
You cannot reply to topics in this forum
You cannot edit your posts in this forum
You cannot delete your posts in this forum
You cannot vote in polls in this forum
You cannot attach files in this forum
You cannot download files in this forum

!ATTENTION!
The site does not give electronic versions of products, and is engaged only in a collecting and cataloguing of the references sent and published at a forum by our readers. If you are the legal owner of any submitted material and do not wish that the reference to it was in our catalogue, contact us and we shall immediately remove her. Files for an exchange on tracker are given by users of a site, and the administration does not bear the responsibility for their maintenance. The request to not fill in the files protected by copyrights, and also files of the illegal maintenance!