Ивановский Торрент трекер
Яндекс.Погода
DL-List and Torrent activity
None
 
     
 
 

[Quote]
HUNTER


Худеем танцуя: фламенко, самба, сальса, болливуд / World dance workout: flamenco, bellydance, samba, salsa, bollywood-Год выпуска: 2006
Страна: США
Сайт производителя: отсутствует
Тематика: спорт, аэробика, фитнес
Тип материала: обучающее видео
Продолжительность: 01:32:23
Автор: отсутствует
Язык: Русский (Профессиональный (одноголосый))
Субтитры: отсутствуют-Описание: Танец живота, Салса, Самба, Фламенко, Болливуд. Сжигайте калории и зарядите энергией тело, изучая танцы мира! Эта уникальная программа, охватывающая многие культуры мира, предлагает объединенный урок танца и дает необходимые советы по изучению наиболее привлекательных и популярных стилей танца. Насладитесь многообразием оттенков и ритмов танца, изучите основные движения, постепенно переходя к все более сложным, что бы наконец, исполнить их на сцене! Программа "Худеем танцуя" подготовлена знаменитой звездой Нью-Йорка, постановщицей и хореографом танцев, Эльзой Леандрос на основе ее 25-летнего опыта исполнительницы и инструктора различных стилей танцев. Эльза использует танцевальные движения, что бы улучшить вашу гибкость, развить природную грацию движений и оказать благотворное влияние на работу сердца. Урок содержит и учебную часть, в которой Эльза раскрывает секреты танцевальных движений, что бы вы могли их легче освоить. Многие танцевальные па кажутся сложными лишь до тех пор пока вы не увидите, как они появляются из самых простых движений. У вас мало времени заниматься? Выберите и создайте для себя свою собственнуд программу. Это именно то, что вам нужно, что бы сэкономить время. Идете на вечеринку? Сразу переходите к танцевальным движениям, которые вы хотите продемонстрировать на сцене, что бы освежить свои навыки!-Качество: DVDRip
Формат: AVI
Видео кодек: XviD
Аудио кодек: AC3
Видео: 688x384 (1.79:1), 29.970 fps, XviD MPEG-4 ~1912 kbps avg, 0.24 bit/pixel
Аудио: 48 kHz, AC3 Dolby Digital, 2/0 (L,R) ch, ~192 kbps-

MediaInfo

Код: copyText_writeLink('this.parentNode.parentNode.nextSibling.nextSibling'); Общее
Полное имя : D:\обуч\Hudeem.tancuja.flamenko.samba.salsa.bollivud.2006.XviD.DVDRip.Kinozal.TV.avi
Формат : AVI
Формат/Информация : Audio Video Interleave
Размер файла : 1,37 Гбайт
Продолжительность : 1 ч. 32 м.
Общий поток : 2116 Кбит/сек
Программа кодирования : FairUse Wizard - http://fairusewizard.com
Библиотека кодирования : The best and REALLY easy backup tool
Видео
Идентификатор : 0
Формат : MPEG-4 Visual
Профиль формата : Advanced Simple@L5
Параметр BVOP формата : 1
Параметр QPel формата : Нет
Параметр GMC формата : Без точки перехода
Параметр матрицы формата : Default (MPEG)
Режим смешивания : Сжатый битовый поток
Идентификатор кодека : XVID
Идентификатор кодека/Подсказка : XviD
Продолжительность : 1 ч. 32 м.
Битрейт : 1912 Кбит/сек
Ширина : 688 пикселей
Высота : 384 пикселя
Соотношение сторон : 16:9
Частота кадров : 29,970 кадров/сек
Цветовое пространство : YUV
Субдискретизация насыщенности : 4:2:0
Битовая глубина : 8 бит
Тип развёртки : Прогрессивная
Метод сжатия : С потерями
Бит/(Пиксели*Кадры) : 0.241
Размер потока : 1,23 Гбайт (90%)
Библиотека кодирования : XviD 1.2.0.dev47 (UTC 2006-11-01)
Аудио
Идентификатор : 1
Формат : AC-3
Формат/Информация : Audio Coding 3
Расширение режима : CM (complete main)
Параметр Endianness формата : Big
Идентификатор кодека : 2000
Продолжительность : 1 ч. 32 м.
Вид битрейта : Постоянный
Битрейт : 192 Кбит/сек
Каналы : 2 канала
Расположение каналов : Front: L R
Частота : 48,0 КГц
Битовая глубина : 16 бит
Метод сжатия : С потерями
Размер потока : 127 Мбайт (9%)
Выравнивание : Разделение по промежуткам
Продолжительность промежутка : 33 мс. (1,00 видеокадр)
Время предзагрузки промежутка : 500 мс.

Скриншоты

-


Display posts:    

Current time is: 23-May 23:09

All times are UTC ± 0


You cannot post new topics in this forum
You cannot reply to topics in this forum
You cannot edit your posts in this forum
You cannot delete your posts in this forum
You cannot vote in polls in this forum
You cannot attach files in this forum
You cannot download files in this forum

!ATTENTION!
The site does not give electronic versions of products, and is engaged only in a collecting and cataloguing of the references sent and published at a forum by our readers. If you are the legal owner of any submitted material and do not wish that the reference to it was in our catalogue, contact us and we shall immediately remove her. Files for an exchange on tracker are given by users of a site, and the administration does not bear the responsibility for their maintenance. The request to not fill in the files protected by copyrights, and also files of the illegal maintenance!