Ивановский Торрент трекер
Яндекс.Погода
DL-List and Torrent activity
None
 
     
 
style="text-align: center"
 

[Quote]
HUNTER

Хроники призрачного племениJiu ceng yao ta
Chronicles of the Ghostly Tribe
- Год выпуска: 2015
Страна: Китай
Жанр: фэнтези, боевик, драма, приключения
Продолжительность: 01:58:04
Перевод: Любительский двухголосый закадровый - GREEN TEA (Макс Коллапс, Айя Сона; перевод - Екатерина Белоусова)
Режиссер: Лу Чуань / Lu Chuan-В ролях:
.............
Марк Чао (Hu Bayi), Яо Чэнь (Shirley Yang), Тиффани Тан (Weiwei), Ридиан Вон (Chen Dong), Ли Чэнь (Mr. Wang), Фэн Ли (Fat Wang Kaixuan), Ли Гуанцзе (Officer Han), Ван Цинсян (Doctor Yang), Чэнь Цзинь (Yang's mother)-Описание: В 1979 году в одной из пещер горной цепи Куньлунь были найдены кости таинственного существа. Ху Байи снаряжает экспедицию в глубины этих гор, чтобы отыскать ещё больше скрытых палеонтологических реликвий. Спустившись вниз, исследователи обнаруживают загадочный город, скрытый под толщей горных пород. Город некогда принадлежал могучей цивилизации, которая обладала великой силой и знала тайны жизни и смерти. Радость столь дивной находки омрачили ужасающие существа, напавшие на группу исследователей.-Доп. инфо: Студийная конвертация в 3Д.
На 01:49:27 имеется артефакт (1 секунда) - так было в исходном BD 3D Remux'е.-Премьера (мир): 30 сентября 2015
. . -Качество: BDRip (by Ash61) (исх - BD 3D Remux)
Контейнер: MKV
Формат 3D: Half OverUnder / Вертикальная анаморфная стереопара
Порядок ракурсов: левый ракурс первый-Видео: AVC / 1920х1080p / 23,976 fps / 12.5 Mbps
Аудио:
#1 - Русский / AC3 / 48 KHz / 5.1 ch / 640 Kbps (DVO - Green Tea) (перемонтаж в 5.1 - Ash61)
#2 - Китайский / AC3 / 48 KHz / 5.1 ch / 640 Kbps (Original - BD 3D)
Субтитры: Внешние (SRT UTF-8) English Full

MediaInfo

General
Unique ID : 225423452698552067812681182155277488794 (0xA996FA4F42DEC24599CFDAD295B6529A)
Complete name : J:\ChroniclesOfTheGhostlyTribe(2015)3D-HOU(Ash61)DVO\ChroniclesOfTheGhostlyTribe(2015)3D-HOU(Ash61)DVO.mkv
Format : Matroska
Format version : Version 2
File size : 11.4 GiB
Duration : 1h 58mn
Overall bit rate : 13.8 Mbps
Movie name : Хроники призрачного племени / Jiu ceng yao ta / Chronicles of the Ghostly Tribe (2015) in 3D
Encoded date : UTC 2019-05-27 17:08:18
Writing application : mkvmerge v5.8.0 ('No Sleep / Pillow') built on Sep 2 2012 15:37:04
Writing library : libebml v1.2.3 + libmatroska v1.3.0
Video
ID : 1
Format : AVC
Format/Info : Advanced Video Codec
Format profile : High@L4.1
Format settings, CABAC : Yes
Format settings, ReFrames : 4 frames
Codec ID : V_MPEG4/ISO/AVC
Duration : 1h 58mn
Bit rate : 12.5 Mbps
Width : 1 920 pixels
Height : 1 080 pixels
Display aspect ratio : 16:9
Frame rate mode : Constant
Frame rate : 23.976 (24000/1001) fps
Color space : YUV
Chroma subsampling : 4:2:0
Bit depth : 8 bits
Scan type : Progressive
Bits/(Pixel*Frame) : 0.251
Stream size : 10.1 GiB (89%)
Title : BDRip by Ash61
Writing library : x264 core 146 r2538 121396c
Encoding settings : cabac=1 / ref=4 / deblock=1:-3:-3 / analyse=0x3:0x113 / me=umh / subme=10 / psy=1 / psy_rd=1.00:0.00 / mixed_ref=1 / me_range=32 / chroma_me=1 / trellis=2 / 8x8dct=1 / cqm=0 / deadzone=21,11 / fast_pskip=0 / chroma_qp_offset=-2 / threads=12 / lookahead_threads=2 / sliced_threads=0 / nr=0 / decimate=0 / interlaced=0 / bluray_compat=0 / constrained_intra=0 / bframes=9 / b_pyramid=2 / b_adapt=2 / b_bias=0 / direct=3 / weightb=1 / open_gop=0 / weightp=2 / keyint=250 / keyint_min=23 / scenecut=40 / intra_refresh=0 / rc_lookahead=60 / rc=2pass / mbtree=0 / bitrate=12500 / ratetol=1.0 / qcomp=0.70 / qpmin=0 / qpmax=69 / qpstep=4 / cplxblur=20.0 / qblur=0.5 / vbv_maxrate=40000 / vbv_bufsize=30000 / nal_hrd=none / filler=0 / frame-packing=4 / ip_ratio=1.40 / pb_ratio=1.30 / aq=1:0.70
Language : Chinese
Default : Yes
Forced : No
Audio #1
ID : 2
Format : AC-3
Format/Info : Audio Coding 3
Mode extension : CM (complete main)
Format settings, Endianness : Big
Codec ID : A_AC3
Duration : 1h 58mn
Bit rate mode : Constant
Bit rate : 640 Kbps
Channel(s) : 6 channels
Channel positions : Front: L C R, Side: L R, LFE
Sampling rate : 48.0 KHz
Frame rate : 31.250 fps (1536 spf)
Compression mode : Lossy
Stream size : 540 MiB (5%)
Title : DVO - Green Tea (перемонтаж в 5.1 - Ash61)
Language : Russian
Default : Yes
Forced : No
Audio #2
ID : 3
Format : AC-3
Format/Info : Audio Coding 3
Mode extension : CM (complete main)
Format settings, Endianness : Big
Codec ID : A_AC3
Duration : 1h 58mn
Bit rate mode : Constant
Bit rate : 640 Kbps
Channel(s) : 6 channels
Channel positions : Front: L C R, Side: L R, LFE
Sampling rate : 48.0 KHz
Frame rate : 31.250 fps (1536 spf)
Compression mode : Lossy
Stream size : 540 MiB (5%)
Title : Original (BD 3D)
Language : Chinese
Default : No
Forced : No
Menu
00:00:00.000 : :1
00:08:30.009 : :2
00:16:53.888 : :3
00:24:00.147 : :4
00:29:18.882 : :5
00:36:43.076 : :6
00:41:13.429 : :7
00:46:48.848 : :8
00:52:21.680 : :9
00:56:41.273 : :10
01:02:39.089 : :11
01:06:58.640 : :12
01:10:26.180 : :13
01:14:17.078 : :14
01:20:15.602 : :15
01:24:58.302 : :16
01:31:32.237 : :17
01:37:39.062 : :18
01:42:17.465 : :19
01:49:58.008 : :20

Для оценки 3Д - Анимированные скрины




















Display posts:    

Current time is: 16-Sep 04:04

All times are UTC ± 0


You cannot post new topics in this forum
You cannot reply to topics in this forum
You cannot edit your posts in this forum
You cannot delete your posts in this forum
You cannot vote in polls in this forum
You cannot attach files in this forum
You cannot download files in this forum

!ATTENTION!
The site does not give electronic versions of products, and is engaged only in a collecting and cataloguing of the references sent and published at a forum by our readers. If you are the legal owner of any submitted material and do not wish that the reference to it was in our catalogue, contact us and we shall immediately remove her. Files for an exchange on tracker are given by users of a site, and the administration does not bear the responsibility for their maintenance. The request to not fill in the files protected by copyrights, and also files of the illegal maintenance!