Ивановский Торрент трекер
Яндекс.Погода
DL-List and Torrent activity
Size:  64.65 GB   |    Registered:  10 months 19 days   |    Completed:  1 time
DL-List: None

Seeder not seen: Never

 
     
 
 
 

[Quote]
HUNTER

Хищник / Predator
«In this movie, Arnold will experience every meaning of the word '' Pain ''»--

  • Год выпуска: 1987

  • Страна: США, Twentieth Century Fox

  • Жанр: фантастика, боевик, триллер

  • Продолжительность: 01:46:35

  • Перевод: Дублированный [Лицензия], профессиональный многоголосый [Киномания] и др.см ниже

  • Субтитры: Русские, английские,
--

  • Режиссер: Джон МакТирнан
--

  • В ролях: Арнольд Шварценеггер, Карл Уэзерс, Элпидия Каррильо, Билл Дьюк, Джесси Вентура, Сонни Лэндэм, Ричард Чавес, Р.Г. Армстронг, Шейн Блэк, Кевин Питер Холл.
--

  • О фильме: Отряд «зеленых беретов» под командованием майора Шеффера по прозвищу «Голландец» с секретной миссией направляется в центрально американские джунгли. Его задача – отыскать лагерь местных повстанцев, захвативших экипаж вертолета союзников. Майор и его коммандос опаздывают: предполагаемые пленники уже мертвы, оскальпированы и подвешены на деревьях вниз головой. Переполненные праведным гневом солдаты Голландца обрушиваются на повстанцев и уничтожают вражеский лагерь. Джунгли зачищены от партизан, однако один из спецназовцев, индеец Билли, уверен, что за отрядом по-прежнему кто-то наблюдает. А вскоре некто невидимый, сливающийся с тропической зеленкой, начинает охоту на коммандос. У незримого врага невиданное оружие, навыки совершенного убийцы и нечеловеческая жестокость. И бойцы начинают понимать, что их противник – вовсе не землянин.
-- --

  • Качество: UHDRemux (2160p) [HDR 10]

  • Формат: MKV

  • Видео кодек: HEVC

  • Аудио кодек: AC3, DTS-HD MA

  • Видео: 3840x2160, 59.8 Mb/s, 23.976 fps,

  • Аудио :

    Аудио

    Аудио №1: DTS Audio / 5.1 / 48 kHz / 768 kbps / 24-bit | Профессиональный (полное дублирование) - Blu-ray CEE
    Аудио №2: DTS-HD Master Audio / 5.1 / 48 kHz / 4539 kbps / 24-bit (DTS Core: 5.1 / 48 kHz / 1509 kbps / 24-bit) | Профессиональный (многоголосый закадровый) - Киномания
    Аудио №3: DTS-HD Master Audio / 5.1 / 48 kHz / 4556 kbps / 24-bit (DTS Core: 5.1 / 48 kHz / 1509 kbps / 24-bit) | Авторский (одноголосый закадровый) - А.Гаврилов
    Аудио №4: DTS-HD Master Audio / 5.1 / 48 kHz / 4557 kbps / 24-bit (DTS Core: 5.1 / 48 kHz / 1509 kbps / 24-bit) | Авторский (одноголосый закадровый) - Дмитрий «Гоблин» Пучков
    Аудио №5: DTS-HD Master Audio / 5.1 / 48 kHz / 4560 kbps / 24-bit (DTS Core: 5.1 / 48 kHz / 1509 kbps / 24-bit) | Профессиональный (двухголосый закадровый) - П.Гланц и И.Королева
    Аудио №6: 48 kHz, AC3, 3/2 (L,C,R,l,r) + LFE ch, ~384.00 kbps avg | Профессиональный (многоголосый закадровый) - Гемини (R5)
    Аудио №7: 48 kHz, AC3, 2/0 (L,R) ch, ~256.00 kbps avg | Авторский (одноголосый закадровый) - А.Гаврилов (VHS)
    Аудио №8: 48 kHz, AC3, 2/0 (L,R) ch, ~256.00 kbps avg | Авторский (одноголосый закадровый) - В.Горчаков
    Аудио №9: 48 kHz, AC3, 2/0 (L,R) ch, ~256.00 kbps avg | Авторский (одноголосый закадровый) - В.Дохалов
    Аудио №10: 48 kHz, AC3, 2/0 (L,R) ch, ~256.00 kbps avg | Авторский (одноголосый закадровый) - Ю.Живов
    Аудио №11: 48 kHz, AC3, 2/0 (L,R) ch, ~256.00 kbps avg | Авторский (одноголосый закадровый) - М.Латишев
    Аудио №12: 48 kHz, AC3, 2/0 (L,R) ch, ~256.00 kbps avg | Авторский (одноголосый закадровый) - Г.Либергал
    Аудио №13: 48 kHz, AC3, 2/0 (L,R) ch, ~192.00 kbps avg | Авторский (одноголосый закадровый) - Б.Федоров
    Аудио №14: 48 kHz, AC3, 2/0 (L,R) ch, ~256.00 kbps avg | Профессиональный (многоголосый закадровый) - НТВ
    Аудио №15: 48 kHz, AC3, 2/0 (L,R) ch, ~192.00 kbps avg | Профессиональный (многоголосый закадровый) - ОРТ
    Аудио №16: 48 kHz, AC3, 3/2 (L,C,R,l,r) + LFE ch, ~384.00 kbps avg | Профессиональный (многоголосый закадровый) Ukrainian - 1+1
    Аудио №17: 48 kHz, AC3, 3/2 (L,C,R,l,r) + LFE ch, ~384.00 kbps avg | Профессиональный (многоголосый закадровый) Ukrainian - ICTV
    Аудио №18: DTS-HD Master Audio / 5.1 / 48 kHz / 4531 kbps / 24-bit (DTS Core: 5.1 / 48 kHz / 1509 kbps / 24-bit) | English
    Аудио №19: 48 kHz, AC3, 2/0 (L,R) ch, 224.00 kbps avg | English | Commentary
--

Mediainfo:

Код: copyText_writeLink('this.parentNode.parentNode.nextSibling.nextSibling'); Общее
Уникальный идентификатор : 176193833353682685912548878663749058750 (0x848DB2ADFADD5294287AC684A9EDC0BE)
Полное имя : Predator.1987.UHD.BDRemux.2160p.HEVC.HDR.IVA(15xRUS.2xUKR.ENG).ExKinoRay.mkv
Формат : Matroska
Версия формата : Version 4 / Version 2
Размер файла : 64,6 Гбайт
Продолжительность : 1 ч. 46 м.
Общий поток : 86,8 Мбит/сек
Название фильма : Хищник / Predator ( 1987 ) UHD BDRemux | HDR, 4K | IVA(15xRUS.2xUKR.ENG) | ExKinoRay
Дата кодирования : UTC 2018-08-04 11:03:35
Программа кодирования : mkvmerge v25.0.0 ('Prog Noir') 64-bit
Библиотека кодирования : libebml v1.3.6 + libmatroska v1.4.9
Обложка : Yes
Видео
Идентификатор : 1
Формат : HEVC
Формат/Информация : High Efficiency Video Coding
Коммерческое название : HDR10
Профиль формата : Main [email protected]@High
Идентификатор кодека : V_MPEGH/ISO/HEVC
Продолжительность : 1 ч. 46 м.
Битрейт : 59,8 Мбит/сек
Ширина : 3840 пикселей
Высота : 2160 пикселей
Соотношение сторон : 16:9
Режим частоты кадров : Постоянный
Частота кадров : 23,976 (24000/1001) кадра/сек
Цветовое пространство : YUV
Субдискретизация насыщенности : 4:2:0 (Type 2)
Битовая глубина : 10 бит
Бит/(Пиксели*Кадры) : 0.301
Размер потока : 44,5 Гбайт (69%)
Заголовок : Predator.1987.UHD.BDRemux.2160p.HEVC.HDR
Язык : English
Default : Да
Forced : Нет
Цветовой диапазон : Limited
Основные цвета : BT.2020
Характеристики трансфера : PQ
Коэффициенты матрицы : BT.2020 non-constant
MasteringDisplay_ColorPrimaries : Display P3
MasteringDisplay_Luminance : min: 0.0050 cd/m2, max: 1000 cd/m2
Аудио #1
Идентификатор : 2
Формат : DTS
Формат/Информация : Digital Theater Systems
Идентификатор кодека : A_DTS
Продолжительность : 1 ч. 46 м.
Вид битрейта : Постоянный
Битрейт : 768 Кбит/сек
Каналы : 6 каналов
Расположение каналов : Front: L C R, Side: L R, LFE
Частота : 48,0 КГц
Частота кадров : 93,750 кадра/сек (512 SPF)
Битовая глубина : 24 бит
Метод сжатия : С потерями
Задержка видео : -19 мс.
Размер потока : 585 Мбайт (1%)
Заголовок : | Дублированный |
Язык : Russian
Default : Да
Forced : Нет
Аудио #2
Идентификатор : 3
Формат : DTS
Формат/Информация : Digital Theater Systems
Профиль формата : MA / Core
Идентификатор кодека : A_DTS
Продолжительность : 1 ч. 46 м.
Вид битрейта : Переменный / Постоянный
Битрейт : 4537 Кбит/сек / 1509 Кбит/сек
Каналы : 6 каналов
Расположение каналов : Front: L C R, Side: L R, LFE
Частота : 48,0 КГц
Частота кадров : 93,750 кадра/сек (512 SPF)
Битовая глубина : 24 бит
Метод сжатия : Без потерь / Lossy
Задержка видео : -19 мс.
Размер потока : 3,38 Гбайт (5%)
Заголовок : | MVO, Киномания |
Язык : Russian
Default : Нет
Forced : Нет
Аудио #3
Идентификатор : 4
Формат : DTS
Формат/Информация : Digital Theater Systems
Профиль формата : MA / Core
Идентификатор кодека : A_DTS
Продолжительность : 1 ч. 46 м.
Вид битрейта : Переменный / Постоянный
Битрейт : 4554 Кбит/сек / 1509 Кбит/сек
Каналы : 6 каналов
Расположение каналов : Front: L C R, Side: L R, LFE
Частота : 48,0 КГц
Частота кадров : 93,750 кадра/сек (512 SPF)
Битовая глубина : 24 бит
Метод сжатия : Без потерь / Lossy
Задержка видео : -19 мс.
Размер потока : 3,39 Гбайт (5%)
Заголовок : | AVO, А.Гаврилов |
Язык : Russian
Default : Нет
Forced : Нет
Аудио #4
Идентификатор : 5
Формат : DTS
Формат/Информация : Digital Theater Systems
Профиль формата : MA / Core
Идентификатор кодека : A_DTS
Продолжительность : 1 ч. 46 м.
Вид битрейта : Переменный / Постоянный
Битрейт : 4555 Кбит/сек / 1509 Кбит/сек
Каналы : 6 каналов
Расположение каналов : Front: L C R, Side: L R, LFE
Частота : 48,0 КГц
Частота кадров : 93,750 кадра/сек (512 SPF)
Битовая глубина : 24 бит
Метод сжатия : Без потерь / Lossy
Задержка видео : -19 мс.
Размер потока : 3,39 Гбайт (5%)
Заголовок : | AVO, Д.Пучков «Гоблин» |
Язык : Russian
Default : Нет
Forced : Нет
Аудио #5
Идентификатор : 6
Формат : DTS
Формат/Информация : Digital Theater Systems
Профиль формата : MA / Core
Идентификатор кодека : A_DTS
Продолжительность : 1 ч. 46 м.
Вид битрейта : Переменный / Постоянный
Битрейт : 4558 Кбит/сек / 1509 Кбит/сек
Каналы : 6 каналов
Расположение каналов : Front: L C R, Side: L R, LFE
Частота : 48,0 КГц
Частота кадров : 93,750 кадра/сек (512 SPF)
Битовая глубина : 24 бит
Метод сжатия : Без потерь / Lossy
Задержка видео : -19 мс.
Размер потока : 3,39 Гбайт (5%)
Заголовок : | DVO, П.Гланц и И.Королева |
Язык : Russian
Default : Нет
Forced : Нет
Аудио #6
Идентификатор : 7
Формат : AC-3
Формат/Информация : Audio Coding 3
Идентификатор кодека : A_AC3
Продолжительность : 1 ч. 46 м.
Вид битрейта : Постоянный
Битрейт : 384 Кбит/сек
Каналы : 6 каналов
Расположение каналов : Front: L C R, Side: L R, LFE
Частота : 48,0 КГц
Частота кадров : 31,250 кадров/сек (1536 SPF)
Битовая глубина : 16 бит
Метод сжатия : С потерями
Задержка видео : -19 мс.
Размер потока : 293 Мбайт (0%)
Заголовок : | MVO, Гемини (R5) |
Язык : Russian
ServiceKind/String : Complete Main
Default : Нет
Forced : Нет
Аудио #7
Идентификатор : 8
Формат : AC-3
Формат/Информация : Audio Coding 3
Идентификатор кодека : A_AC3
Продолжительность : 1 ч. 46 м.
Вид битрейта : Постоянный
Битрейт : 256 Кбит/сек
Каналы : 2 канала
Расположение каналов : Front: L R
Частота : 48,0 КГц
Частота кадров : 31,250 кадров/сек (1536 SPF)
Битовая глубина : 16 бит
Метод сжатия : С потерями
Задержка видео : -19 мс.
Размер потока : 195 Мбайт (0%)
Заголовок : | AVO, А.Гаврилов (VHS) |
Язык : Russian
ServiceKind/String : Complete Main
Default : Нет
Forced : Нет
Аудио #8
Идентификатор : 9
Формат : AC-3
Формат/Информация : Audio Coding 3
Идентификатор кодека : A_AC3
Продолжительность : 1 ч. 46 м.
Вид битрейта : Постоянный
Битрейт : 256 Кбит/сек
Каналы : 2 канала
Расположение каналов : Front: L R
Частота : 48,0 КГц
Частота кадров : 31,250 кадров/сек (1536 SPF)
Битовая глубина : 16 бит
Метод сжатия : С потерями
Задержка видео : -19 мс.
Размер потока : 195 Мбайт (0%)
Заголовок : | AVO, В.Горчаков |
Язык : Russian
ServiceKind/String : Complete Main
Default : Нет
Forced : Нет
Аудио #9
Идентификатор : 10
Формат : AC-3
Формат/Информация : Audio Coding 3
Идентификатор кодека : A_AC3
Продолжительность : 1 ч. 43 м.
Вид битрейта : Постоянный
Битрейт : 256 Кбит/сек
Каналы : 2 канала
Расположение каналов : Front: L R
Частота : 48,0 КГц
Частота кадров : 31,250 кадров/сек (1536 SPF)
Битовая глубина : 16 бит
Метод сжатия : С потерями
Задержка видео : -19 мс.
Размер потока : 190 Мбайт (0%)
Заголовок : | AVO, В.Дохалов |
Язык : Russian
ServiceKind/String : Complete Main
Default : Нет
Forced : Нет
Аудио #10
Идентификатор : 11
Формат : AC-3
Формат/Информация : Audio Coding 3
Идентификатор кодека : A_AC3
Продолжительность : 1 ч. 46 м.
Вид битрейта : Постоянный
Битрейт : 256 Кбит/сек
Каналы : 2 канала
Расположение каналов : Front: L R
Частота : 48,0 КГц
Частота кадров : 31,250 кадров/сек (1536 SPF)
Битовая глубина : 16 бит
Метод сжатия : С потерями
Задержка видео : -19 мс.
Размер потока : 195 Мбайт (0%)
Заголовок : | AVO, Ю.Живов |
Язык : Russian
ServiceKind/String : Complete Main
Default : Нет
Forced : Нет
Аудио #11
Идентификатор : 12
Формат : AC-3
Формат/Информация : Audio Coding 3
Идентификатор кодека : A_AC3
Продолжительность : 1 ч. 46 м.
Вид битрейта : Постоянный
Битрейт : 256 Кбит/сек
Каналы : 2 канала
Расположение каналов : Front: L R
Частота : 48,0 КГц
Частота кадров : 31,250 кадров/сек (1536 SPF)
Битовая глубина : 16 бит
Метод сжатия : С потерями
Задержка видео : -19 мс.
Размер потока : 195 Мбайт (0%)
Заголовок : | AVO, М.Латишев |
Язык : Russian
ServiceKind/String : Complete Main
Default : Нет
Forced : Нет
Аудио #12
Идентификатор : 13
Формат : AC-3
Формат/Информация : Audio Coding 3
Идентификатор кодека : A_AC3
Продолжительность : 1 ч. 46 м.
Вид битрейта : Постоянный
Битрейт : 256 Кбит/сек
Каналы : 2 канала
Расположение каналов : Front: L R
Частота : 48,0 КГц
Частота кадров : 31,250 кадров/сек (1536 SPF)
Битовая глубина : 16 бит
Метод сжатия : С потерями
Задержка видео : -19 мс.
Размер потока : 195 Мбайт (0%)
Заголовок : | AVO, Г.Либергал |
Язык : Russian
ServiceKind/String : Complete Main
Default : Нет
Forced : Нет
Аудио #13
Идентификатор : 14
Формат : AC-3
Формат/Информация : Audio Coding 3
Идентификатор кодека : A_AC3
Продолжительность : 1 ч. 46 м.
Вид битрейта : Постоянный
Битрейт : 192 Кбит/сек
Каналы : 2 канала
Расположение каналов : Front: L R
Частота : 48,0 КГц
Частота кадров : 31,250 кадров/сек (1536 SPF)
Битовая глубина : 16 бит
Метод сжатия : С потерями
Задержка видео : -19 мс.
Размер потока : 146 Мбайт (0%)
Заголовок : | AVO, Б.Федоров |
Язык : Russian
ServiceKind/String : Complete Main
Default : Нет
Forced : Нет
Аудио #14
Идентификатор : 15
Формат : AC-3
Формат/Информация : Audio Coding 3
Идентификатор кодека : A_AC3
Продолжительность : 1 ч. 46 м.
Вид битрейта : Постоянный
Битрейт : 256 Кбит/сек
Каналы : 2 канала
Расположение каналов : Front: L R
Частота : 48,0 КГц
Частота кадров : 31,250 кадров/сек (1536 SPF)
Битовая глубина : 16 бит
Метод сжатия : С потерями
Задержка видео : -19 мс.
Размер потока : 195 Мбайт (0%)
Заголовок : | MVO, НТВ |
Язык : Russian
ServiceKind/String : Complete Main
Default : Нет
Forced : Нет
Аудио #15
Идентификатор : 16
Формат : AC-3
Формат/Информация : Audio Coding 3
Идентификатор кодека : A_AC3
Продолжительность : 1 ч. 46 м.
Вид битрейта : Постоянный
Битрейт : 192 Кбит/сек
Каналы : 2 канала
Расположение каналов : Front: L R
Частота : 48,0 КГц
Частота кадров : 31,250 кадров/сек (1536 SPF)
Битовая глубина : 16 бит
Метод сжатия : С потерями
Задержка видео : -19 мс.
Размер потока : 146 Мбайт (0%)
Заголовок : | MVO, ОРТ |
Язык : Russian
ServiceKind/String : Complete Main
Default : Нет
Forced : Нет
Аудио #16
Идентификатор : 17
Формат : AC-3
Формат/Информация : Audio Coding 3
Идентификатор кодека : A_AC3
Продолжительность : 1 ч. 46 м.
Вид битрейта : Постоянный
Битрейт : 384 Кбит/сек
Каналы : 6 каналов
Расположение каналов : Front: L C R, Side: L R, LFE
Частота : 48,0 КГц
Частота кадров : 31,250 кадров/сек (1536 SPF)
Битовая глубина : 16 бит
Метод сжатия : С потерями
Задержка видео : -19 мс.
Размер потока : 293 Мбайт (0%)
Заголовок : | MVO, 1+1 |
Язык : Ukrainian
ServiceKind/String : Complete Main
Default : Нет
Forced : Нет
Аудио #17
Идентификатор : 18
Формат : AC-3
Формат/Информация : Audio Coding 3
Идентификатор кодека : A_AC3
Продолжительность : 1 ч. 46 м.
Вид битрейта : Постоянный
Битрейт : 384 Кбит/сек
Каналы : 6 каналов
Расположение каналов : Front: L C R, Side: L R, LFE
Частота : 48,0 КГц
Частота кадров : 31,250 кадров/сек (1536 SPF)
Битовая глубина : 16 бит
Метод сжатия : С потерями
Задержка видео : -19 мс.
Размер потока : 293 Мбайт (0%)
Заголовок : | MVO, ICTV |
Язык : Ukrainian
ServiceKind/String : Complete Main
Default : Нет
Forced : Нет
Аудио #18
Идентификатор : 19
Формат : DTS
Формат/Информация : Digital Theater Systems
Профиль формата : MA / Core
Идентификатор кодека : A_DTS
Продолжительность : 1 ч. 46 м.
Вид битрейта : Переменный / Постоянный
Битрейт : 4500 Кбит/сек / 1509 Кбит/сек
Каналы : 6 каналов
Расположение каналов : Front: L C R, Side: L R, LFE
Частота : 48,0 КГц
Частота кадров : 93,750 кадра/сек (512 SPF)
Битовая глубина : 24 бит
Метод сжатия : Без потерь / Lossy
Размер потока : 3,35 Гбайт (5%)
Заголовок : | Original |
Язык : English
Default : Нет
Forced : Нет
Аудио #19
Идентификатор : 20
Формат : AC-3
Формат/Информация : Audio Coding 3
Идентификатор кодека : A_AC3
Продолжительность : 1 ч. 46 м.
Вид битрейта : Постоянный
Битрейт : 224 Кбит/сек
Каналы : 2 канала
Расположение каналов : Front: L R
Частота : 48,0 КГц
Частота кадров : 31,250 кадров/сек (1536 SPF)
Битовая глубина : 16 бит
Метод сжатия : С потерями
Задержка видео : 31 мс.
Размер потока : 171 Мбайт (0%)
Заголовок : | Commentary |
Язык : English
ServiceKind/String : Complete Main
Default : Нет
Forced : Нет
Текст #1
Идентификатор : 21
Формат : UTF-8
Идентификатор кодека : S_TEXT/UTF8
Идентификатор кодека/Информация : UTF-8 Plain Text
Продолжительность : 1 ч. 45 м.
Битрейт : 30 бит/сек
ElementCount : 415
Размер потока : 23,4 Кбайт (0%)
Заголовок : Blu-ray CEE
Язык : Russian
Default : Нет
Forced : Нет
Текст #2
Идентификатор : 22
Формат : UTF-8
Идентификатор кодека : S_TEXT/UTF8
Идентификатор кодека/Информация : UTF-8 Plain Text
Продолжительность : 1 ч. 40 м.
Битрейт : 38 бит/сек
ElementCount : 556
Размер потока : 28,2 Кбайт (0%)
Заголовок : Д. Пучков
Язык : Russian
Default : Нет
Forced : Нет
Текст #3
Идентификатор : 23
Формат : UTF-8
Идентификатор кодека : S_TEXT/UTF8
Идентификатор кодека/Информация : UTF-8 Plain Text
Продолжительность : 1 ч. 37 м.
Битрейт : 20 бит/сек
ElementCount : 433
Размер потока : 14,9 Кбайт (0%)
Заголовок : Full
Язык : English
Default : Нет
Forced : Нет
Меню
00:00:00.000 : en:The Invaders (Main Titles)
00:04:04.284 : en:The Professionals
00:06:29.639 : en:Schaefer's Team
00:10:32.464 : en:Death in the Jungle
00:18:21.183 : en:The Watcher
00:20:21.553 : en:The Rebel Camp
00:27:52.337 : en:Set Up
00:31:04.279 : en:The Stalker
00:34:53.716 : en:The Only Way Out
00:37:49.600 : en:Something in the Trees
00:41:00.833 : en:The Living Jungle
00:46:33.373 : en:Another Kill
00:53:08.685 : en:There's Something Out There
01:01:37.402 : en:The Stand
01:04:08.761 : en:The Demon
01:08:09.919 : en:Two for the Kill
01:14:10.362 : en:Billy's Last Stand
01:15:50.212 : en:Dutch and the Demon
01:18:27.369 : en:The Alien's Weakness
01:20:55.015 : en:The Trap and the Trophies
01:25:09.270 : en:The Challenge
01:34:31.832 : en:One Ugly
01:35:49.118 : en:Duel
01:39:58.659 : en:The Last Laugh
01:42:56.170 : en:End Titles

Trailer

Скриншоты

-- --Время раздачи:с 4 до 20 мск
[iv-torrents.ru].t82552.torrent
Torrent: Registered [ 2018-08-05 17:17 ] · 1B92E70F95F9ACC5B652079982F9239618A3C81B

Download .torrent

Download

162 KB

Status: checked
Completed: 1 times
Size: 64.65 GB
terms.php
Похожие темы


Quick Reply

Name:

               
       
     
Heads necessary to send messages to enable JavaScript
Display posts:    

Current time is: 25-Jun 07:53

All times are UTC ± 0


You can post new topics in this forum
You can reply to topics in this forum
You cannot edit your posts in this forum
You cannot delete your posts in this forum
You cannot vote in polls in this forum
You cannot attach files in this forum
You can download files in this forum

!ATTENTION!
The site does not give electronic versions of products, and is engaged only in a collecting and cataloguing of the references sent and published at a forum by our readers. If you are the legal owner of any submitted material and do not wish that the reference to it was in our catalogue, contact us and we shall immediately remove her. Files for an exchange on tracker are given by users of a site, and the administration does not bear the responsibility for their maintenance. The request to not fill in the files protected by copyrights, and also files of the illegal maintenance!