Ивановский Торрент трекер
Яндекс.Погода
 

[Quote]
HUNTER

-Хилы | Heels- Год выпуска: 2021
Страна: США
Жанр: Драма, спорт
Продолжительность: 01:02:00-Перевод: Профессиональный (многоголосый закадровый) | Novamedia по заказу Amedia-Режиссёр: Питер Сигал, Джессика Лори-В ролях: Стивен Амелл, Александр Людвиг, Элисон Лафф, Кристофер Бауэр, Келли Бергланд, Найджел Крокер, Рокстон Гарсия, Мелисса Лиэллен, Мэри МакКормак, Робби Рамос, Элис Баррет, Пи Джей Хоукс, Дюк Дэвис Робертс, Дэвид Джеймс Эллиотт-Описание: История двух братьев-рестлеров, которые почти не разграничивают семейные отношения и конфликт на боевой сцене. Такой накал страстей идет на пользу шоу, а вот самим родственникам — вряд ли. Им предстоит разобраться, кто все же главный хил.-[box=#aed8ff,#003465]Ссылка на предыдущие и альтернативные раздачи[/box]- -Качество: WEB-DLRip
Формат: AVI
Видео: XviD, 704x352 (2,000), 23.976 кадров/сек, 1700 Кбит/сек
Аудио Rus: AC3, 48,0 kHz, 2 ch, 192 Кбит/сек | Novamedia
Аудио Eng: AC3, 48,0 kHz, 2 ch, 192 Кбит/сек
Субтитры: Русские (Amedia), английские
Реклама: Отсутствует-

Список серий

01. Kayfabe / Кайфейб
02. Dusty Finish / Дасти финиш
03. Cheap Heat / Подлый приём
04. Cutting Promos / Эффектное промо
05. Swerve / Не по плану
06. House Show / Хаус-шоу
07. The Big Bad Fish Man / Большой злобный рыбак
08. Double Turn / Дабл-тёрн
-

MediaInfo

Общее
Полное имя : D:\Heels (Season 1) WEB-DLRip\Heels.S01E01.WEB-DLRip.RGzsRutracker.[Wentworth_Miller].avi
Формат : AVI
Формат/Информация : Audio Video Interleave
Размер файла : 933 Мбайт
Продолжительность : 1 ч. 2 м.
Общий поток : 2 098 Кбит/сек
Программа кодирования : VirtualDubMod 1.5.10.3 | www.virtualdub-fr.org || (build 2550/release)
Видео
Идентификатор : 0
Формат : MPEG-4 Visual
Профиль формата : Advanced [email protected]
Настройки формата : BVOP1 / Custom Matrix
Параметр BVOP формата : 1
Параметр QPel формата : Нет
Параметр GMC формата : Без точки перехода
Параметр матрицы формата : Выборочная
Идентификатор кодека : XVID
Идентификатор кодека/Подсказка : XviD
Продолжительность : 1 ч. 2 м.
Битрейт : 1 700 Кбит/сек
Ширина : 704 пикселя
Высота : 352 пикселя
Соотношение сторон : 2,000
Частота кадров : 23,976 (24000/1001) кадра/сек
Цветовое пространство : YUV
Субдискретизация насыщенности : 4:2:0
Битовая глубина : 8 бит
Тип развёртки : Прогрессивная
Метод сжатия : С потерями
Бит/(Пиксели*Кадры) : 0.286
Размер потока : 756 Мбайт (81%)
Библиотека кодирования : XviD 69
Аудио #1
Идентификатор : 1
Формат : AC-3
Формат/Информация : Audio Coding 3
Коммерческое название : Dolby Digital
Идентификатор кодека : 2000
Продолжительность : 1 ч. 2 м.
Вид битрейта : Постоянный
Битрейт : 192 Кбит/сек
Каналы : 2 канала
Channel layout : L R
Частота : 48,0 КГц
Частота кадров : 31,250 кадров/сек (1536 SPF)
Метод сжатия : С потерями
Размер потока : 85,4 Мбайт (9%)
Выравнивание : Разделение по промежуткам
Продолжительность промежутка : 42 мс. (1,00 видеокадр)
Время предзагрузки промежутка : 500 мс.
Service kind : Complete Main
Аудио #2
Идентификатор : 2
Формат : AC-3
Формат/Информация : Audio Coding 3
Коммерческое название : Dolby Digital
Идентификатор кодека : 2000
Продолжительность : 1 ч. 2 м.
Вид битрейта : Постоянный
Битрейт : 192 Кбит/сек
Каналы : 2 канала
Channel layout : L R
Частота : 48,0 КГц
Частота кадров : 31,250 кадров/сек (1536 SPF)
Метод сжатия : С потерями
Размер потока : 85,4 Мбайт (9%)
Выравнивание : Разделение по промежуткам
Продолжительность промежутка : 42 мс. (1,00 видеокадр)
Время предзагрузки промежутка : 500 мс.
Service kind : Complete Main
-

Скриншоты

-Релиз группы:


Display posts:    

Current time is: 17-Oct 02:58

All times are UTC ± 0


You cannot post new topics in this forum
You cannot reply to topics in this forum
You cannot edit your posts in this forum
You cannot delete your posts in this forum
You cannot vote in polls in this forum
You cannot attach files in this forum
You cannot download files in this forum

!ATTENTION!
The site does not give electronic versions of products, and is engaged only in a collecting and cataloguing of the references sent and published at a forum by our readers. If you are the legal owner of any submitted material and do not wish that the reference to it was in our catalogue, contact us and we shall immediately remove her. Files for an exchange on tracker are given by users of a site, and the administration does not bear the responsibility for their maintenance. The request to not fill in the files protected by copyrights, and also files of the illegal maintenance!