Ивановский Торрент трекер
Яндекс.Погода
DL-List and Torrent activity
Size:  4.48 GB   |    Registered:  2 months 23 days   |    Completed:  7 times
DL-List: None

Seeder not seen: 2 months 2 days

 
     
 
 
 

[Quote]
HUNTER

Кащей Бессмертный
Страна: СССР
Жанр: детский, сказка
Год выпуска: 1944 / 2014
Продолжительность: 01:03:20
Субтитры: нет-Режиссер:
Александр Роу-В ролях:
Александр Ширшов, Георгий Милляр, Сергей Столяров, Галина Григорьева, Сергей Филиппов, Эммануил Геллер, Леонид Кровицкий, Иван Рыжов, Сергей Троицкий, Иван Бобров-Описание: Эпическая сказка, снятая в годы Второй Мировой войны. Русские богатыри Никита Кожемяка и Булат Балагур спасают землю русскую от вражьих полчищ Кащея Бессмертного и освобождают красавицу Марью Моревну.- by maksnew-Качество видео: WEB-DL 1080p
Формат видео: MKV
Видео: 1440x1080 (4:3), 25.000 fps, AVC, ~9705 Kbps, 0.250 bits/pixel
Аудио: Russian, 48.0 KHz, AC3+, 2 ch, 224 Kbps
[box]Сэмпл[/box]-

MediaInfo

Код:Формат : Matroska
Версия формата : Version 4
Размер файла : 4,48 Гбайт
Продолжительность : 1 ч. 3 м.
Общий поток : 10,1 Мбит/сек
Дата кодирования : UTC 2019-08-26 08:01:41
Программа кодирования : mkvmerge v36.0.0 ('Is That Jazz?') 64-bit
Библиотека кодирования : libebml v1.3.9 + libmatroska v1.5.2
Видео
Идентификатор : 1
Формат : AVC
Формат/Информация : Advanced Video Codec
Профиль формата : High@L4
Настройки формата : CABAC / 4 Ref Frames
Параметр CABAC формата : Да
Параметр RefFrames формата : 4 кадра
Идентификатор кодека : V_MPEG4/ISO/AVC
Продолжительность : 1 ч. 3 м.
Битрейт : 9905 Кбит/сек
Ширина : 1440 пикселей
Высота : 1080 пикселей
Соотношение сторон : 4:3
Режим частоты кадров : Постоянный
Частота кадров : 25,000 кадров/сек
Цветовое пространство : YUV
Субдискретизация насыщенности : 4:2:0
Битовая глубина : 8 бит
Тип развёртки : Прогрессивная
Бит/(Пиксели*Кадры) : 0.255
Размер потока : 4,38 Гбайт (98%)
Default : Да
Forced : Нет
Цветовой диапазон : Limited
Основные цвета : BT.709
Характеристики трансфера : BT.709
Коэффициенты матрицы : BT.709
Аудио
Идентификатор : 2
Формат : E-AC-3
Формат/Информация : Enhanced AC-3
Коммерческое название : Dolby Digital Plus
Идентификатор кодека : A_EAC3
Продолжительность : 1 ч. 3 м.
Вид битрейта : Постоянный
Битрейт : 224 Кбит/сек
Каналы : 2 канала
ChannelLayout : L R
Частота : 48,0 КГц
Частота кадров : 31,250 кадров/сек (1536 SPF)
Метод сжатия : С потерями
Размер потока : 101 Мбайт (2%)
Язык : Russian
ServiceKind/String : Complete Main
Default : Да
Forced : Нет

Скриншоты


[iv-torrents.ru].t99205.torrent
Torrent: Registered [ 2019-08-29 23:06 ] · 9E2F8121B87F37A4C5048C529D408E3B2341CE66

Download .torrent

Download

23 KB

Status: checked
Completed: 7 times
Size: 4.48 GB
terms.php


Display posts:    

Current time is: 22-Nov 02:29

All times are UTC ± 0


You cannot post new topics in this forum
You cannot reply to topics in this forum
You cannot edit your posts in this forum
You cannot delete your posts in this forum
You cannot vote in polls in this forum
You cannot attach files in this forum
You can download files in this forum

!ATTENTION!
The site does not give electronic versions of products, and is engaged only in a collecting and cataloguing of the references sent and published at a forum by our readers. If you are the legal owner of any submitted material and do not wish that the reference to it was in our catalogue, contact us and we shall immediately remove her. Files for an exchange on tracker are given by users of a site, and the administration does not bear the responsibility for their maintenance. The request to not fill in the files protected by copyrights, and also files of the illegal maintenance!