Ивановский Торрент трекер
Яндекс.Погода
 

[Quote]
HUNTER

Камень викингов / Магический камень / The Runestone
Страна: США
Студия: The Runestone Corporation / Hyperion Pictures / Movie Group, The / Signature Communications
Жанр: ужасы, фантастика
Год выпуска: 1990
Продолжительность: 01:38:27
Перевод: Профессиональный (многоголосый закадровый)
Перевод 2: Профессиональный (двухголосый закадровый)
Cубтитры: нет
Оригинальная аудиодорожка: английский
Режиссер: Уиллард Кэрролл / Willard Carroll
В ролях: Питер Ригерт, Джоан Северанс, Уильям Хикки, Тим Райан, Митчелл Лоранс, Лоуренс Тирни, Крис Янг, Александр Годунов, Дональд Хоттон
Описание: Рабочие обнаруживают в твёрдых слоях одной из шахт Пенсильвании древний камень с руническими символами (письмена викингов). Его переправляют в научную лабораторию, где он становится объектом исследования для парочки археологов (Сэма Стюарта и Мартина Альмквиста) и художницы Марлы – жены Сэма. Но по пути его передвижения мы успеваем заметить, что когда его волочили в лифте, то он, возможно, стал причиной гибели людей. Их, во всяком случае, нашли мёртвыми. Однажды, когда они втроём вышли из здания, Мартин вспомнил, что оставил в лаборатории ключи, и направился назад. Но когда он зашёл внутрь комнаты, туда, где была руническая глыба, что-то произошло. Оттуда вышел уже не он, а какой-то волосатый монстр с длинными когтями, острыми зубами и здоровыми клыками. Он прикончил уборщика и охранника и смылся. Не нашли и Мартина. Зато чуть позже он сам нашёл своих верных друзей, заявился, когда его не ждали, и учинил дебош (вроде бы, не пьяный). Молодой паре чудом удалось унести ноги. Зато чудище продолжило свою кровавую поступь, оставляя повсюду трупы. И только тогда Сэм Стюарт просёк, что на свободу было выпущено древнее божество викингов, которое было заточено в камне многие тысячи лет, и теперь оно жаждет крови…
Доп. информация: За основу взят двд отечественного производства с многоголосым перевод.Вторая русская дорожка была взята от сюда http://rutracker.org/forum/viewtopic.php?t=1227694 автору большое спасибо.
За синхронизацию огромное спасибо Нордер.
При пересборе двд были использованы программы:
PgcDemux - разделение компонентов диска на файлы
Muxman - мультиплексирование и авторинг DVD
VobBlanker - реавторинг DVD

Скрин завершения проекта

Бонусы: Смотрите на DVD.
Сэмпл: http://sendfile.su/1103618
Тип релиза: DVD5 (Custom)
Контейнер: DVD-Video
Видео: PAL 4:3 (720x576) VBR
Аудио: Russian (Dolby AC3, 192 Кбит/сек, 2 ch)
Аудио 2: Russian (Dolby AC3, 448 Кбит/сек, 6 ch)
Аудио 3: English (Dolby AC3, 448 Кбит/сек, 6 ch)

DVDInfo

Size: 4.32 Gb ( 4 531 930 KBytes ) - DVD-5
Enabled regions: 1, 2, 3, 4, 5, 6
VTS_01 :
Play Length:
Video: PAL 4:3 (720x576) VBR
VTS_02 :
Play Length: 01:38:27
Video: PAL 4:3 (720x576) VBR
Audio:
Russian (Dolby AC3, 2 ch)
Russian (Dolby AC3, 6 ch)
English (Dolby AC3, 6 ch)
VTS_03 :
Play Length: 00:01:40
Video: PAL 16:9 (720x576) VBR, Auto Pan&Scan, Auto Letterboxed
Audio:
Russian (Dolby AC3, 2 ch)
Russian (Dolby AC3, 2 ch)
VTS_04 :
Play Length:
Video: PAL 4:3 (720x576) VBR
Audio:
Russian (Dolby AC3, 2 ch)
Russian (Dolby AC3, 2 ch)
VTS_05 :
Play Length: 00:01:49
Video: PAL 4:3 (720x576) VBR
Audio:
Russian (Dolby AC3, 2 ch)
Russian (Dolby AC3, 2 ch)
Menu Video:
PAL 4:3 (720x576) VBR
Menu English Language Unit :
Root Menu

MediaInfo

Общее
Полное имя : M:\The Runestone_1990\VIDEO_TS\VTS_02_1.VOB
Формат : MPEG-PS
Размер файла : 1024 Мбайт
Продолжительность : 23 м.
Режим общего битрейта : Переменный
Общий поток : 6116 Кбит/сек
Видео
Идентификатор : 224 (0xE0)
Формат : MPEG Video
Версия формата : Version 2
Профиль формата : [email protected]
Параметр BVOP формата : Да
Параметр матрицы формата : Выборочная
Продолжительность : 23 м.
Вид битрейта : Переменный
Битрейт : 4906 Кбит/сек
Максимальный битрейт : 7300 Кбит/сек
Ширина : 720 пикселей
Высота : 576 пикселей
Соотношение сторон : 4:3
Частота кадров : 25,000 кадров/сек
Стандарт вещания : PAL
Цветовое пространство : YUV
Субдискретизация насыщенности : 4:2:0
Битовая глубина : 8 бит
Тип развёртки : Чересстрочная
Порядок развёртки : Верхнее поле первое
Метод сжатия : С потерями
Бит/(Пиксели*Кадры) : 0.473
Размер потока : 821 Мбайт (80%)
Аудио #1
Идентификатор : 189 (0xBD)-128 (0x80)
Формат : AC-3
Формат/Информация : Audio Coding 3
Расширение режима : CM (complete main)
Параметр Endianness формата : Big
Режим смешивания : DVD-Video
Продолжительность : 23 м.
Вид битрейта : Постоянный
Битрейт : 192 Кбит/сек
Каналы : 2 канала
Расположение каналов : Front: L R
Частота : 48,0 КГц
Битовая глубина : 16 бит
Метод сжатия : С потерями
Размер потока : 32,1 Мбайт (3%)
Аудио #2
Идентификатор : 189 (0xBD)-129 (0x81)
Формат : AC-3
Формат/Информация : Audio Coding 3
Расширение режима : CM (complete main)
Параметр Endianness формата : Big
Режим смешивания : DVD-Video
Продолжительность : 23 м.
Вид битрейта : Постоянный
Битрейт : 448 Кбит/сек
Каналы : 6 каналов
Расположение каналов : Front: L C R, Side: L R, LFE
Частота : 48,0 КГц
Битовая глубина : 16 бит
Метод сжатия : С потерями
Размер потока : 75,0 Мбайт (7%)
Аудио #3
Идентификатор : 189 (0xBD)-130 (0x82)
Формат : AC-3
Формат/Информация : Audio Coding 3
Расширение режима : CM (complete main)
Параметр Endianness формата : Big
Режим смешивания : DVD-Video
Продолжительность : 23 м.
Вид битрейта : Постоянный
Битрейт : 448 Кбит/сек
Каналы : 6 каналов
Расположение каналов : Front: L C R, Side: L R, LFE
Частота : 48,0 КГц
Битовая глубина : 16 бит
Метод сжатия : С потерями
Размер потока : 75,0 Мбайт (7%)
Меню

Постеры

Скриншоты меню

Скриншоты



Display posts:    

Current time is: 04-Jun 05:35

All times are UTC ± 0


You cannot post new topics in this forum
You cannot reply to topics in this forum
You cannot edit your posts in this forum
You cannot delete your posts in this forum
You cannot vote in polls in this forum
You cannot attach files in this forum
You cannot download files in this forum

!ATTENTION!
The site does not give electronic versions of products, and is engaged only in a collecting and cataloguing of the references sent and published at a forum by our readers. If you are the legal owner of any submitted material and do not wish that the reference to it was in our catalogue, contact us and we shall immediately remove her. Files for an exchange on tracker are given by users of a site, and the administration does not bear the responsibility for their maintenance. The request to not fill in the files protected by copyrights, and also files of the illegal maintenance!