Ивановский Торрент трекер
Яндекс.Погода
DL-List and Torrent activity
Size:  5.34 GB   |    Registered:  8 months 16 days   |    Completed:  2 times
DL-List: None

Seeder not seen: Never

 
     
 
 
 

[Quote]
HUNTER

Как Витька Чеснок вёз Лёху Штыря в дом инвалидов- Год выпуска: 2017
Страна: Россия
Студия: ВГИК-Дебют
Жанр: драма, криминал-Продолжительность: 01:29:47
Перевод: не требуется
Субтитры: нет
Оригинальная аудиодорожка: русская-Режиссёр: Александр Хант
В ролях: Евгений Ткачук, Алексей Серебряков, Андрей Смирнов, Наталия Вдовина, Ольга Лапшина, Ольга Обласова, Алина Насибуллина, Роман Шаляпин, Игорь Гаспарян, Константин Гацалов, Дмитрий Архангельский, Георгий Кудренко, Сергей Букреев, Галина Лебедева, Александр Велескевич, Ксения Орлова, Ольга Воронина, Михаил Тройник, Сергей Грищенко, Константин Григорьев, Феодор Перетрухин, Сергей Коновалов, Александра Ревенко и др.-Описание: Картина расскажет о 27-летнем Витьке Чесноке, парне с детдомовским прошлым, который мечтает сбежать от «мешающих» ему жить жены и сына. Недолюбленный в детстве и очерствевший сердцем Витька Чеснок встречает своего отца-уголовника, а теперь еще и калеку. Витька решает отвезти отца в дом инвалидов, не подозревая, какие приключения и опасности ждут их по дороге.-КиноПоиск | IMDb | Sample-Качество: BDRip 720p (Источник: GARLIC_RUS_BLUEBIRD)
Формат: MKV
Видео: x264, 1280x720 (16:9), 24.000 fps, ~6838 kbps avg, 0.309 bit/pixel
Аудио: Русский 48.0 KHz, DTS, 3/2 (L,C,R,l,r) + LFE ch, ~1509.00 kbps avg-

Релиз


Рип - whip93.

Сравнение скриншотов

Source vs. Encode

MediaInfo | x264 log

x264 log

---[Information] [16.01.2018 18:38:25] raw [info]: 1280x720p 1:1 @ 24/1 fps (cfr)
---[Information] [16.01.2018 18:38:25] x264 [info]: using SAR=1/1
---[Information] [16.01.2018 18:38:25] x264 [info]: using cpu capabilities: MMX2 SSE2Fast SSSE3 SSE4.2 AVX
---[Information] [16.01.2018 18:38:25] x264 [info]: profile High, level 4.1
---[Information] [17.01.2018 2:45:17] x264 [info]: frame I:838 Avg QP:12.69 size:191185
---[Information] [17.01.2018 2:45:17] x264 [info]: frame P:27667 Avg QP:16.02 size: 69068
---[Information] [17.01.2018 2:45:17] x264 [info]: frame B:100788 Avg QP:17.95 size: 26253
---[Information] [17.01.2018 2:45:17] x264 [info]: consecutive B-frames: 1.3% 2.9% 6.1% 25.3% 21.9% 27.4% 9.8% 1.6% 2.3% 0.4% 0.4% 0.0% 0.3% 0.1% 0.3%
---[Information] [17.01.2018 2:45:17] x264 [info]: mb I I16..4: 8.3% 62.4% 29.3%
---[Information] [17.01.2018 2:45:17] x264 [info]: mb P I16..4: 0.7% 16.3% 1.7% P16..4: 38.7% 24.7% 9.6% 4.2% 0.7% skip: 3.3%
---[Information] [17.01.2018 2:45:17] x264 [info]: mb B I16..4: 0.2% 4.0% 0.2% B16..8: 34.4% 19.8% 3.6% direct: 9.9% skip:27.8% L0:39.2% L1:41.4% BI:19.4%
---[Information] [17.01.2018 2:45:17] x264 [info]: 8x8 transform intra:86.8% inter:52.5%
---[Information] [17.01.2018 2:45:17] x264 [info]: coded y,uvDC,uvAC intra: 90.6% 81.2% 59.3% inter: 37.0% 31.8% 10.8%
---[Information] [17.01.2018 2:45:17] x264 [info]: i16 v,h,dc,p: 27% 10% 13% 50%
---[Information] [17.01.2018 2:45:17] x264 [info]: i8 v,h,dc,ddl,ddr,vr,hd,vl,hu: 9% 9% 14% 9% 11% 11% 12% 11% 14%
---[Information] [17.01.2018 2:45:17] x264 [info]: i4 v,h,dc,ddl,ddr,vr,hd,vl,hu: 10% 10% 11% 8% 14% 12% 13% 10% 12%
---[Information] [17.01.2018 2:45:17] x264 [info]: i8c dc,h,v,p: 43% 25% 17% 15%
---[Information] [17.01.2018 2:45:17] x264 [info]: Weighted P-Frames: Y:2.1% UV:1.5%
---[Information] [17.01.2018 2:45:17] x264 [info]: ref P L0: 47.8% 4.3% 16.4% 7.5% 7.0% 5.0% 5.1% 3.3% 3.6% 0.1% 0.0%
---[Information] [17.01.2018 2:45:17] x264 [info]: ref B L0: 73.8% 10.8% 5.4% 3.4% 2.6% 2.2% 1.4% 0.5%
---[Information] [17.01.2018 2:45:17] x264 [info]: ref B L1: 94.9% 5.1%
---[Information] [17.01.2018 2:45:17] x264 [info]: kb/s:7004.90
---[Information] [17.01.2018 2:45:17] encoded 129293 frames, 4.43 fps, 7004.90 kb/s
General
Unique ID : 168239155501027377841961982505927716998 (0x7E91AEC808D7E6EADB5DC4808E1A3086)
Complete name : F:\Как.Витька.Чеснок.вёз.Лёху.Штыря.в.дом.инвалидов.2017.720p.BluRay.DTS.x264.-whip93.mkv
Format : Matroska
Format version : Version 4 / Version 2
File size : 5.34 GiB
Duration : 1h 29mn
Overall bit rate : 8 516 Kbps
Movie name : Как Витька Чеснок вёз Лёху Штыря в дом инвалидов (2017) - Release by whip93
Encoded date : UTC 2018-01-17 04:47:58
Writing application : mkvmerge v19.0.0 ('Brave Captain') 64-bit
Writing library : libebml v1.3.5 + libmatroska v1.4.8
DURATION : 01:29:47.190000000
NUMBER_OF_FRAMES : 505049
NUMBER_OF_BYTES : 1016158656
_STATISTICS_WRITING_APP : mkvmerge v19.0.0 ('Brave Captain') 64-bit
_STATISTICS_WRITING_DATE_UT : 2018-01-17 04:47:58
_STATISTICS_TAGS : BPS DURATION NUMBER_OF_FRAMES NUMBER_OF_BYTES
Video
ID : 1
Format : AVC
Format/Info : Advanced Video Codec
Format profile : High@L4.1
Format settings, CABAC : Yes
Format settings, ReFrames : 9 frames
Codec ID : V_MPEG4/ISO/AVC
Duration : 1h 29mn
Bit rate : 6 838 Kbps
Width : 1 280 pixels
Height : 720 pixels
Display aspect ratio : 16:9
Frame rate mode : Constant
Frame rate : 24.000 fps
Color space : YUV
Chroma subsampling : 4:2:0
Bit depth : 8 bits
Scan type : Progressive
Bits/(Pixel*Frame) : 0.309
Stream size : 4.29 GiB (80%)
Title : Encoded by whip93
Writing library : x264 core 152 r2851 ba24899
Encoding settings : cabac=1 / ref=9 / deblock=1:-3:-3 / analyse=0x3:0x133 / me=umh / subme=11 / psy=1 / psy_rd=1.00:0.08 / mixed_ref=0 / me_range=64 / chroma_me=1 / trellis=2 / 8x8dct=1 / cqm=0 / deadzone=21,11 / fast_pskip=0 / chroma_qp_offset=-1 / threads=12 / lookahead_threads=3 / sliced_threads=0 / nr=0 / decimate=1 / interlaced=0 / bluray_compat=0 / constrained_intra=0 / bframes=14 / b_pyramid=2 / b_adapt=2 / b_bias=0 / direct=1 / weightb=1 / open_gop=0 / weightp=2 / keyint=240 / keyint_min=24 / scenecut=40 / intra_refresh=0 / rc_lookahead=90 / rc=crf / mbtree=1 / crf=16.0 / qcomp=0.72 / qpmin=0 / qpmax=69 / qpstep=4 / vbv_maxrate=50000 / vbv_bufsize=62500 / crf_max=0.0 / nal_hrd=none / filler=0 / ip_ratio=1.40 / aq=1:0.80 / zones=0,429,q=26/125583,129292,q=26
Language : Russian
Default : Yes
Forced : No
Color range : Limited
Color primaries : BT.709
Transfer characteristics : BT.709
Matrix coefficients : BT.709
Audio
ID : 2
Format : DTS
Format/Info : Digital Theater Systems
Mode : 16
Format settings, Endianness : Big
Codec ID : A_DTS
Duration : 1h 29mn
Bit rate mode : Constant
Bit rate : 1 509 Kbps
Channel(s) : 6 channels
Channel positions : Front: L C R, Side: L R, LFE
Sampling rate : 48.0 KHz
Bit depth : 24 bits
Compression mode : Lossy
Stream size : 969 MiB (18%)
Language : Russian
Default : Yes
Forced : No
Menu
00:00:00.000 : ru:Глава 1
00:00:19.375 : ru:Глава 2
00:10:09.083 : ru:Глава 3
00:23:03.750 : ru:Глава 4
00:34:10.500 : ru:Глава 5
00:44:36.250 : ru:Глава 6
00:54:35.166 : ru:Глава 7
01:07:18.916 : ru:Глава 8
01:16:00.166 : ru:Глава 9

Скриншоты

-
[iv-torrents.ru].t82609.torrent
Torrent: Registered [ 2018-08-05 17:06 ] · BE907EF15D2E8456E2340B323210741FA79E2394

Download .torrent

Download

54 KB

Status: checked
Completed: 2 times
Size: 5.34 GB
terms.php
Похожие темы


Display posts:    

Current time is: 22-Apr 14:45

All times are UTC ± 0


You cannot post new topics in this forum
You cannot reply to topics in this forum
You cannot edit your posts in this forum
You cannot delete your posts in this forum
You cannot vote in polls in this forum
You cannot attach files in this forum
You can download files in this forum

!ATTENTION!
The site does not give electronic versions of products, and is engaged only in a collecting and cataloguing of the references sent and published at a forum by our readers. If you are the legal owner of any submitted material and do not wish that the reference to it was in our catalogue, contact us and we shall immediately remove her. Files for an exchange on tracker are given by users of a site, and the administration does not bear the responsibility for their maintenance. The request to not fill in the files protected by copyrights, and also files of the illegal maintenance!