Важное объявление!
У Нас Все раздачи мультитрекерные, при нуле пиров в релизах, можете смело вставать на закачку!
 
Автор Сообщение

HUNTER

Стаж:
4 года 4 месяца
Сообщений:
56829

Репутация: 101

[+] [-]
Вне форума [Профиль] [ЛС]

Bonzai All Stars - The Ultimate Megamix
Жанр: Jumpstyle, Trance, Hard House, Hardcore
Год издания: 2011
Издатель (лейбл): Mostiko
Номер по каталогу: 22 23579-2
Аудиокодек: FLAC (*.flac)
Тип рипа: tracks+.cue
Битрейт аудио: lossless
Продолжительность: 72:23
Источник (релизер): what.cd
Наличие сканов в содержимом раздачи: нет
Треклист:
01. Thunderball - Bonzai Channel One [03:21]
02. Phrenetic System - Wayfarer [01:45]
03. Repulsive 2 - Recactussed [01:58]
04. Push - Universal Nation [04:02]
05. Yves Deruyter - The Rebel (Original Mix) [01:36]
06. Cherrymoon Trax - The House Of House [04:53]
07. Jones & Stephenson - The First Rebirth [03:08]
08. DJ Looney Tune - Beatbox (Aceed Mix) [01:30]
09. Yves Deruyter - Calling Earth (Original Mix) [01:38]
10. Insider - Boots On The Run (Original Mix) [02:42]
11. Push - Strange World (2000 Remake) [02:57]
12. Joyrider - The Deadline (N.Y. Mix) [03:07]
13. Aqua Contact - La Sirena (Original Mix) [01:21]
14. Dreamland - Mind Penetration [01:19]
15. Yves Deruyter - Animals (Remix) [02:05]
16. Dave Davis - Transfiguration [02:30]
17. Dream Your Dream - Soushkin [02:59]
18. Final Analyzis - El Punto Final (Power Mix) [01:22]
19. DJ Yves - Bugging [03:01]
20. Trancescape - Producelast [01:21]
21. Belgica Wave Party - The Wave [04:10]
22. DJ Looney Tune - Jumpin' & Pumpin' [02:59]
23. DJ Bountyhunter - Woops [01:29]
24. Blue Alphabet - Cybertrance [02:26]
25. DJ Bountyhunter - Demilitarized Zone [01:21]
26. Dream Your Dream - Mayday Dream [01:01]
27. Thunderball - It's Your DJ [01:01]
28. Traxcalibur - The Dreamer [02:28]
29. Cherrymoon Trax - Let There Be House [03:03]
30. Dream Your Dream - Belgium Jump [03:36]

Лог создания рипа

Exact Audio Copy V1.0 beta 3 from 29. August 2011
EAC extraction logfile from 14. November 2012, 9:29
Bonzai All Stars / The Ultimate Megamix
Used drive : Optiarc DVD RW AD-5240S Adapter: 6 ID: 0
Read mode : SecureUtilize accurate stream : YesDefeat audio cache : YesMake use of C2 pointers : No
Read offset correction : 48Overread into Lead-In and Lead-Out : NoFill up missing offset samples with silence : YesDelete leading and trailing silent blocks : NoNull samples used in CRC calculations : YesUsed interface : Native Win32 interface for Win NT & 2000Gap handling : Appended to previous track
Used output format : User Defined EncoderSelected bitrate : 1024 kBit/sQuality : HighAdd ID3 tag : NoCommand line compressor : C:\Program Files (x86)\Exact Audio Copy\FLAC\FLAC.EXEAdditional command line options : -8 -V -T "ARTIST=%artist%" -T "TITLE=%title%" -T "ALBUM=%albumtitle%" -T "DATE=%year%" -T "TRACKNUMBER=%tracknr%" -T "GENRE=%genre%" -T "PERFORMER=%albuminterpret%" -T "COMPOSER=%composer%" %haslyrics%--tag-from-file=LYRICS="%lyricsfile%"%haslyrics% -T "ALBUMARTIST=%albumartist%" -T "DISCNUMBER=%cdnumber%" -T "TOTALDISCS=%totalcds%" -T "TOTALTRACKS=%numtracks%" -T "COMMENT=%comment%" %source% -o %dest%
TOC of the extracted CD
Track | Start | Length | Start sector | End sector --------------------------------------------------------- 1 | 0:00.00 | 3:21.31 | 0 | 15105 2 | 3:21.31 | 1:45.05 | 15106 | 22985 3 | 5:06.36 | 1:58.04 | 22986 | 31839 4 | 7:04.40 | 4:02.31 | 31840 | 50020 5 | 11:06.71 | 1:36.00 | 50021 | 57220 6 | 12:42.71 | 4:53.58 | 57221 | 79253 7 | 17:36.54 | 3:08.66 | 79254 | 93419 8 | 20:45.45 | 1:30.21 | 93420 | 100190 9 | 22:15.66 | 1:38.47 | 100191 | 107587 10 | 23:54.38 | 2:42.03 | 107588 | 119740 11 | 26:36.41 | 2:57.67 | 119741 | 133082 12 | 29:34.33 | 3:07.31 | 133083 | 147138 13 | 32:41.64 | 1:21.23 | 147139 | 153236 14 | 34:03.12 | 1:19.65 | 153237 | 159226 15 | 35:23.02 | 2:05.19 | 159227 | 168620 16 | 37:28.21 | 2:30.10 | 168621 | 179880 17 | 39:58.31 | 2:59.57 | 179881 | 193362 18 | 42:58.13 | 1:22.19 | 193363 | 199531 19 | 44:20.32 | 3:01.69 | 199532 | 213175 20 | 47:22.26 | 1:21.37 | 213176 | 219287 21 | 48:43.63 | 4:10.56 | 219288 | 238093 22 | 52:54.44 | 2:59.17 | 238094 | 251535 23 | 55:53.61 | 1:29.44 | 251536 | 258254 24 | 57:23.30 | 2:26.60 | 258255 | 269264 25 | 59:50.15 | 1:21.37 | 269265 | 275376 26 | 61:11.52 | 1:01.48 | 275377 | 279999 27 | 62:13.25 | 1:01.11 | 280000 | 284585 28 | 63:14.36 | 2:28.72 | 284586 | 295757 29 | 65:43.33 | 3:03.31 | 295758 | 309513 30 | 68:46.64 | 3:36.68 | 309514 | 325781
Track 1
Filename D:\Muziek\FLAC\Bonzai All Stars - The Ultimate Megamix 2011 [FLAC]\01 - Thunderball - Bonzai Channel One.wav
Pre-gap length 0:00:02.00
Peak level 98.8 % Extraction speed 2.4 X Track quality 100.0 % Test CRC 5C711542 Copy CRC 5C711542 Track not present in AccurateRip database Copy OK
Track 2
Filename D:\Muziek\FLAC\Bonzai All Stars - The Ultimate Megamix 2011 [FLAC]\02 - Phrenetic System - Wayfarer.wav
Peak level 98.8 % Extraction speed 2.3 X Track quality 100.0 % Test CRC 86D94860 Copy CRC 86D94860 Track not present in AccurateRip database Copy OK
Track 3
Filename D:\Muziek\FLAC\Bonzai All Stars - The Ultimate Megamix 2011 [FLAC]\03 - Repulsive 2 - Recactussed.wav
Peak level 98.8 % Extraction speed 2.4 X Track quality 100.0 % Test CRC 8C7372E7 Copy CRC 8C7372E7 Track not present in AccurateRip database Copy OK
Track 4
Filename D:\Muziek\FLAC\Bonzai All Stars - The Ultimate Megamix 2011 [FLAC]\04 - Push - Universal Nation.wav
Peak level 98.8 % Extraction speed 2.9 X Track quality 100.0 % Test CRC 22DD3EFB Copy CRC 22DD3EFB Track not present in AccurateRip database Copy OK
Track 5
Filename D:\Muziek\FLAC\Bonzai All Stars - The Ultimate Megamix 2011 [FLAC]\05 - Yves Deruyter - The Rebel (Original Mix).wav
Peak level 98.8 % Extraction speed 2.5 X Track quality 100.0 % Test CRC 273E2881 Copy CRC 273E2881 Track not present in AccurateRip database Copy OK
Track 6
Filename D:\Muziek\FLAC\Bonzai All Stars - The Ultimate Megamix 2011 [FLAC]\06 - Cherrymoon Trax - The House Of House.wav
Peak level 98.8 % Extraction speed 3.0 X Track quality 99.9 % Test CRC 5A61685C Copy CRC 5A61685C Track not present in AccurateRip database Copy OK
Track 7
Filename D:\Muziek\FLAC\Bonzai All Stars - The Ultimate Megamix 2011 [FLAC]\07 - Jones & Stephenson - The First Rebirth.wav
Peak level 98.8 % Extraction speed 2.8 X Track quality 99.9 % Test CRC 204CA466 Copy CRC 204CA466 Track not present in AccurateRip database Copy OK
Track 8
Filename D:\Muziek\FLAC\Bonzai All Stars - The Ultimate Megamix 2011 [FLAC]\08 - DJ Looney Tune - Beatbox (Aceed Mix).wav
Peak level 98.8 % Extraction speed 2.2 X Track quality 99.8 % Test CRC 5FCF968C Copy CRC 5FCF968C Track not present in AccurateRip database Copy OK
Track 9
Filename D:\Muziek\FLAC\Bonzai All Stars - The Ultimate Megamix 2011 [FLAC]\09 - Yves Deruyter - Calling Earth (Original Mix).wav
Peak level 98.8 % Extraction speed 2.3 X Track quality 99.8 % Test CRC DC1F627D Copy CRC DC1F627D Track not present in AccurateRip database Copy OK
Track 10
Filename D:\Muziek\FLAC\Bonzai All Stars - The Ultimate Megamix 2011 [FLAC]\10 - Insider - Boots On The Run (Original Mix).wav
Peak level 98.8 % Extraction speed 3.4 X Track quality 100.0 % Test CRC A64F4A9A Copy CRC A64F4A9A Track not present in AccurateRip database Copy OK
Track 11
Filename D:\Muziek\FLAC\Bonzai All Stars - The Ultimate Megamix 2011 [FLAC]\11 - Push - Strange World (2000 Remake).wav
Peak level 98.8 % Extraction speed 3.6 X Track quality 100.0 % Test CRC D058C761 Copy CRC D058C761 Track not present in AccurateRip database Copy OK
Track 12
Filename D:\Muziek\FLAC\Bonzai All Stars - The Ultimate Megamix 2011 [FLAC]\12 - Joyrider - The Deadline (N.Y. Mix).wav
Peak level 98.8 % Extraction speed 3.8 X Track quality 100.0 % Test CRC D1DA5594 Copy CRC D1DA5594 Track not present in AccurateRip database Copy OK
Track 13
Filename D:\Muziek\FLAC\Bonzai All Stars - The Ultimate Megamix 2011 [FLAC]\13 - Aqua Contact - La Sirena (Original Mix).wav
Peak level 98.8 % Extraction speed 2.4 X Track quality 99.8 % Test CRC 4DA72555 Copy CRC 4DA72555 Track not present in AccurateRip database Copy OK
Track 14
Filename D:\Muziek\FLAC\Bonzai All Stars - The Ultimate Megamix 2011 [FLAC]\14 - Dreamland - Mind Penetration.wav
Peak level 98.8 % Extraction speed 3.2 X Track quality 100.0 % Test CRC E95FAFDF Copy CRC E95FAFDF Track not present in AccurateRip database Copy OK
Track 15
Filename D:\Muziek\FLAC\Bonzai All Stars - The Ultimate Megamix 2011 [FLAC]\15 - Yves Deruyter - Animals (Remix).wav
Peak level 98.8 % Extraction speed 3.7 X Track quality 100.0 % Test CRC 508827B5 Copy CRC 508827B5 Track not present in AccurateRip database Copy OK
Track 16
Filename D:\Muziek\FLAC\Bonzai All Stars - The Ultimate Megamix 2011 [FLAC]\16 - Dave Davis - Transfiguration.wav
Peak level 98.8 % Extraction speed 3.9 X Track quality 100.0 % Test CRC 5295B1C2 Copy CRC 5295B1C2 Track not present in AccurateRip database Copy OK
Track 17
Filename D:\Muziek\FLAC\Bonzai All Stars - The Ultimate Megamix 2011 [FLAC]\17 - Dream Your Dream - Soushkin.wav
Peak level 98.8 % Extraction speed 4.1 X Track quality 100.0 % Test CRC 133B7215 Copy CRC 133B7215 Track not present in AccurateRip database Copy OK
Track 18
Filename D:\Muziek\FLAC\Bonzai All Stars - The Ultimate Megamix 2011 [FLAC]\18 - Final Analyzis - El Punto Final (Power Mix).wav
Peak level 98.8 % Extraction speed 3.4 X Track quality 100.0 % Test CRC 8114E815 Copy CRC 8114E815 Track not present in AccurateRip database Copy OK
Track 19
Filename D:\Muziek\FLAC\Bonzai All Stars - The Ultimate Megamix 2011 [FLAC]\19 - DJ Yves - Bugging.wav
Peak level 98.8 % Extraction speed 3.6 X Track quality 99.9 % Test CRC 97E1429D Copy CRC 97E1429D Track not present in AccurateRip database Copy OK
Track 20
Filename D:\Muziek\FLAC\Bonzai All Stars - The Ultimate Megamix 2011 [FLAC]\20 - Trancescape - Producelast.wav
Peak level 98.8 % Extraction speed 3.5 X Track quality 100.0 % Test CRC E3049552 Copy CRC E3049552 Track not present in AccurateRip database Copy OK
Track 21
Filename D:\Muziek\FLAC\Bonzai All Stars - The Ultimate Megamix 2011 [FLAC]\21 - Belgica Wave Party - The Wave.wav
Peak level 98.8 % Extraction speed 4.7 X Track quality 100.0 % Test CRC 701C2787 Copy CRC 701C2787 Track not present in AccurateRip database Copy OK
Track 22
Filename D:\Muziek\FLAC\Bonzai All Stars - The Ultimate Megamix 2011 [FLAC]\22 - DJ Looney Tune - Jumpin' & Pumpin'.wav
Peak level 98.8 % Extraction speed 4.5 X Track quality 100.0 % Test CRC C1A509A6 Copy CRC C1A509A6 Track not present in AccurateRip database Copy OK
Track 23
Filename D:\Muziek\FLAC\Bonzai All Stars - The Ultimate Megamix 2011 [FLAC]\23 - DJ Bountyhunter - Woops.wav
Peak level 98.8 % Extraction speed 3.8 X Track quality 100.0 % Test CRC AD55DE76 Copy CRC AD55DE76 Track not present in AccurateRip database Copy OK
Track 24
Filename D:\Muziek\FLAC\Bonzai All Stars - The Ultimate Megamix 2011 [FLAC]\24 - Blue Alphabet - Cybertrance.wav
Peak level 98.8 % Extraction speed 4.5 X Track quality 100.0 % Test CRC 69CA70E5 Copy CRC 69CA70E5 Track not present in AccurateRip database Copy OK
Track 25
Filename D:\Muziek\FLAC\Bonzai All Stars - The Ultimate Megamix 2011 [FLAC]\25 - DJ Bountyhunter - Demilitarized Zone.wav
Peak level 98.8 % Extraction speed 3.9 X Track quality 100.0 % Test CRC 5E792BBA Copy CRC 5E792BBA Track not present in AccurateRip database Copy OK
Track 26
Filename D:\Muziek\FLAC\Bonzai All Stars - The Ultimate Megamix 2011 [FLAC]\26 - Dream Your Dream - Mayday Dream.wav
Peak level 98.8 % Extraction speed 3.5 X Track quality 100.0 % Test CRC E36684A1 Copy CRC E36684A1 Track not present in AccurateRip database Copy OK
Track 27
Filename D:\Muziek\FLAC\Bonzai All Stars - The Ultimate Megamix 2011 [FLAC]\27 - Thunderball - It's Your DJ.wav
Peak level 98.8 % Extraction speed 3.6 X Track quality 100.0 % Test CRC 50DE29B9 Copy CRC 50DE29B9 Track not present in AccurateRip database Copy OK
Track 28
Filename D:\Muziek\FLAC\Bonzai All Stars - The Ultimate Megamix 2011 [FLAC]\28 - Traxcalibur - The Dreamer.wav
Peak level 98.8 % Extraction speed 4.7 X Track quality 100.0 % Test CRC 2AB50687 Copy CRC 2AB50687 Track not present in AccurateRip database Copy OK
Track 29
Filename D:\Muziek\FLAC\Bonzai All Stars - The Ultimate Megamix 2011 [FLAC]\29 - Cherrymoon Trax - Let There Be House.wav
Peak level 98.8 % Extraction speed 5.0 X Track quality 100.0 % Test CRC A69E0E88 Copy CRC A69E0E88 Track not present in AccurateRip database Copy OK
Track 30
Filename D:\Muziek\FLAC\Bonzai All Stars - The Ultimate Megamix 2011 [FLAC]\30 - Dream Your Dream - Belgium Jump.wav
Peak level 98.8 % Extraction speed 5.2 X Track quality 100.0 % Test CRC 1F773727 Copy CRC 1F773727 Track not present in AccurateRip database Copy OK
None of the tracks are present in the AccurateRip database
No errors occurred
End of status report
---- CUETools DB Plugin V2.1.3
[CTDB TOCID: 1Mqmt524Qh2VKHIAeWsnslcTYvU-] found, Submit result: 1Mqmt524Qh2VKHIAeWsnslcTYvU- has been confirmed[3ad86ac8] (1/1) Accurately ripped
==== Log checksum 89C660C2D4F18FCD8CFA8E069019E4E1529543DE1EC694733D2A1F2D9138D65E ====

Содержание индексной карты (.CUE)

REM DATE 2011REM DISCID C810F71EREM COMMENT "ExactAudioCopy v1.0b3"CATALOG 8714221059885PERFORMER "Bonzai All Stars"TITLE "The Ultimate Megamix"FILE "01 - Thunderball - Bonzai Channel One.wav" WAVE TRACK 01 AUDIO TITLE "Bonzai Channel One" PERFORMER "Thunderball" ISRC BEZ450610301 INDEX 01 00:00:00FILE "02 - Phrenetic System - Wayfarer.wav" WAVE TRACK 02 AUDIO TITLE "Wayfarer" PERFORMER "Phrenetic System" ISRC BEZ450240909 INDEX 01 00:00:00FILE "03 - Repulsive 2 - Recactussed.wav" WAVE TRACK 03 AUDIO TITLE "Recactussed" PERFORMER "Repulsive 2" ISRC BEZ450622440 INDEX 01 00:00:00FILE "04 - Push - Universal Nation.wav" WAVE TRACK 04 AUDIO TITLE "Universal Nation" PERFORMER "Push" ISRC BEZ450650613 INDEX 01 00:00:00FILE "05 - Yves Deruyter - The Rebel (Original Mix).wav" WAVE TRACK 05 AUDIO TITLE "The Rebel (Original Mix)" PERFORMER "Yves Deruyter" ISRC BEZ459830601 INDEX 01 00:00:00FILE "06 - Cherrymoon Trax - The House Of House.wav" WAVE TRACK 06 AUDIO TITLE "The House Of House" PERFORMER "Cherrymoon Trax" ISRC BEZ450600624 INDEX 01 00:00:00FILE "07 - Jones & Stephenson - The First Rebirth.wav" WAVE TRACK 07 AUDIO TITLE "The First Rebirth" PERFORMER "Jones & Stephenson" ISRC BEZ450040607 INDEX 01 00:00:00FILE "08 - DJ Looney Tune - Beatbox (Aceed Mix).wav" WAVE TRACK 08 AUDIO TITLE "Beatbox (Aceed Mix)" PERFORMER "DJ Looney Tune" ISRC BEZ450640650 INDEX 01 00:00:00FILE "09 - Yves Deruyter - Calling Earth (Original Mix).wav" WAVE TRACK 09 AUDIO TITLE "Calling Earth (Original Mix)" PERFORMER "Yves Deruyter" ISRC BEZ459900607 INDEX 01 00:00:00FILE "10 - Insider - Boots On The Run (Original Mix).wav" WAVE TRACK 10 AUDIO TITLE "Boots On The Run (Original Mix)" PERFORMER "Insider" ISRC BEZ450100607 INDEX 01 00:00:00FILE "11 - Push - Strange World (2000 Remake).wav" WAVE TRACK 11 AUDIO TITLE "Strange World (2000 Remake)" PERFORMER "Push" ISRC BEZ450010624 INDEX 01 00:00:00FILE "12 - Joyrider - The Deadline (N.Y. Mix).wav" WAVE TRACK 12 AUDIO TITLE "The Deadline (N.Y. Mix)" PERFORMER "Joyrider" ISRC BEZ450220906 INDEX 01 00:00:00FILE "13 - Aqua Contact - La Sirena (Original Mix).wav" WAVE TRACK 13 AUDIO TITLE "La Sirena (Original Mix)" PERFORMER "Aqua Contact" ISRC BEZ450600628 INDEX 01 00:00:00FILE "14 - Dreamland - Mind Penetration.wav" WAVE TRACK 14 AUDIO TITLE "Mind Penetration" PERFORMER "Dreamland" ISRC BEZ450201503 INDEX 01 00:00:00FILE "15 - Yves Deruyter - Animals (Remix).wav" WAVE TRACK 15 AUDIO TITLE "Animals (Remix)" PERFORMER "Yves Deruyter" ISRC BEZ459900608 INDEX 01 00:00:00FILE "16 - Dave Davis - Transfiguration.wav" WAVE TRACK 16 AUDIO TITLE "Transfiguration" PERFORMER "Dave Davis" ISRC BEZ450000620 INDEX 01 00:00:00FILE "17 - Dream Your Dream - Soushkin.wav" WAVE TRACK 17 AUDIO TITLE "Soushkin" PERFORMER "Dream Your Dream" ISRC BEZ450920611 INDEX 01 00:00:00FILE "18 - Final Analyzis - El Punto Final (Power Mix).wav" WAVE TRACK 18 AUDIO TITLE "El Punto Final (Power Mix)" PERFORMER "Final Analyzis" ISRC BEZ450612417 INDEX 01 00:00:00FILE "19 - DJ Yves - Bugging.wav" WAVE TRACK 19 AUDIO TITLE "Bugging" PERFORMER "DJ Yves" ISRC BEZ450700306 INDEX 01 00:00:00FILE "20 - Trancescape - Producelast.wav" WAVE TRACK 20 AUDIO TITLE "Producelast" PERFORMER "Trancescape" ISRC BEZ459901101 INDEX 01 00:00:00FILE "21 - Belgica Wave Party - The Wave.wav" WAVE TRACK 21 AUDIO TITLE "The Wave" PERFORMER "Belgica Wave Party" ISRC BEZ450602416 INDEX 01 00:00:00FILE "22 - DJ Looney Tune - Jumpin' & Pumpin'.wav" WAVE TRACK 22 AUDIO TITLE "Jumpin' & Pumpin'" PERFORMER "DJ Looney Tune" ISRC BEZ450601508 INDEX 01 00:00:00FILE "23 - DJ Bountyhunter - Woops.wav" WAVE TRACK 23 AUDIO TITLE "Woops" PERFORMER "DJ Bountyhunter" ISRC BEZ450000903 INDEX 01 00:00:00FILE "24 - Blue Alphabet - Cybertrance.wav" WAVE TRACK 24 AUDIO TITLE "Cybertrance" PERFORMER "Blue Alphabet" ISRC BEZ450130704 INDEX 01 00:00:00FILE "25 - DJ Bountyhunter - Demilitarized Zone.wav" WAVE TRACK 25 AUDIO TITLE "Demilitarized Zone" PERFORMER "DJ Bountyhunter" ISRC BEZ450010903 INDEX 01 00:00:00FILE "26 - Dream Your Dream - Mayday Dream.wav" WAVE TRACK 26 AUDIO TITLE "Mayday Dream" PERFORMER "Dream Your Dream" ISRC BEZ450602418 INDEX 01 00:00:00FILE "27 - Thunderball - It's Your DJ.wav" WAVE TRACK 27 AUDIO TITLE "It's Your DJ" PERFORMER "Thunderball" ISRC BEZ450031503 INDEX 01 00:00:00FILE "28 - Traxcalibur - The Dreamer.wav" WAVE TRACK 28 AUDIO TITLE "The Dreamer" PERFORMER "Traxcalibur" ISRC BEZ450602426 INDEX 01 00:00:00FILE "29 - Cherrymoon Trax - Let There Be House.wav" WAVE TRACK 29 AUDIO TITLE "Let There Be House" PERFORMER "Cherrymoon Trax" ISRC BEZ450600625 INDEX 01 00:00:00FILE "30 - Dream Your Dream - Belgium Jump.wav" WAVE TRACK 30 AUDIO TITLE "Belgium Jump" PERFORMER "Dream Your Dream" ISRC BEZ450630312 INDEX 01 00:00:00


_________________
Показать сообщения:    

Текущее время: Сегодня 10:42

Часовой пояс: GMT



Вы не можете начинать темы
Вы не можете отвечать на сообщения
Вы не можете редактировать свои сообщения
Вы не можете удалять свои сообщения
Вы не можете голосовать в опросах
Вы не можете прикреплять файлы к сообщениям
Вы не можете скачивать файлы