Важное объявление!
У Нас Все раздачи мультитрекерные, при нуле пиров в релизах, можете смело вставать на закачку!
Статистика раздачи
Размер:     |    Зарегистрирован:     |    Скачан:     |   
Нет
 
     
 
 
Автор Сообщение

HUNTER

Стаж:
5 лет
Сообщений:
68401

Репутация: 101

[+] [-]
Вне форума [Профиль] [ЛС]

Jeckyll & Hyde / The Album
Жанр: Jumpstyle
Год издания: 2007
Издатель (лейбл): Digidance
Номер по каталогу: DIGI264-2
Аудиокодек: FLAC (*.flac)
Тип рипа: tracks
Битрейт аудио: lossless
Продолжительность: 62:39
Источник (релизер): what.cd (joofoo)
Наличие сканов в содержимом раздачи: да
Треклист:
01. Intro
02. La Dans Macabre
03. Lost In Space
04. Frozen Flame
05. The Lost Files
06. The Flipside
07. Precious Dreamer
08. Freefall
09. Frozen Flame (Wezz & Fisher Extended Remix)
10. Lost In Time
11. Kick This One
12. In Trance Of
13. Time Flies
14. End Of Time
15. Play It Loud (Noise Provider Remix)
16. Universal Nation (Bonustrack)

Лог создания рипа

Exact Audio Copy V0.99 prebeta 5 from 4. May 2009
EAC extraction logfile from 14. May 2010, 18:00
JECKYLL & HYDE / THE ALBUM
Used drive : HL-DT-STBD-RE BH08LS20 Adapter: 7 ID: 0
Read mode : SecureUtilize accurate stream : YesDefeat audio cache : NoMake use of C2 pointers : No
Read offset correction : 667Overread into Lead-In and Lead-Out : NoFill up missing offset samples with silence : YesDelete leading and trailing silent blocks : NoNull samples used in CRC calculations : YesUsed interface : Native Win32 interface for Win NT & 2000Gap handling : Not detected, thus appended to previous track
Used output format : User Defined EncoderSelected bitrate : 320 kBit/sQuality : HighAdd ID3 tag : NoCommand line compressor : C:\Program Files (x86)\FLAC\flac.exeAdditional command line options : -5 -T "Artist=%a" -T "Title=%t" -T "Album=%g" -T "Date=%y" -T "Tracknumber=%n" -T "Genre=%m" %s -o %d
TOC of the extracted CD
Track | Start | Length | Start sector | End sector --------------------------------------------------------- 1 | 0:00.00 | 1:54.13 | 0 | 8562 2 | 1:54.13 | 4:01.71 | 8563 | 26708 3 | 5:56.09 | 3:22.74 | 26709 | 41932 4 | 9:19.08 | 3:34.69 | 41933 | 58051 5 | 12:54.02 | 3:50.39 | 58052 | 75340 6 | 16:44.41 | 3:21.44 | 75341 | 90459 7 | 20:06.10 | 4:24.73 | 90460 | 110332 8 | 24:31.08 | 3:28.38 | 110333 | 125970 9 | 27:59.46 | 7:29.56 | 125971 | 159701 10 | 35:29.27 | 4:03.15 | 159702 | 177941 11 | 39:32.42 | 4:12.31 | 177942 | 196872 12 | 43:44.73 | 3:41.07 | 196873 | 213454 13 | 47:26.05 | 3:40.37 | 213455 | 229991 14 | 51:06.42 | 3:36.70 | 229992 | 246261 15 | 54:43.37 | 4:13.52 | 246262 | 265288 16 | 58:57.14 | 3:42.00 | 265289 | 281938 17 | 65:11.14 | 8:25.13 | 293339 | 331226
Track 1
Filename D:\flac\JECKYLL & HYDE (2007) THE ALBUM\01. INTRO.wav
Peak level 100.0 % Track quality 100.0 % Test CRC 4E9111FC Copy CRC 4E9111FC Track not present in AccurateRip database Copy OK
Track 2
Filename D:\flac\JECKYLL & HYDE (2007) THE ALBUM\02. LA DANS MACABRE.wav
Peak level 89.1 % Track quality 100.0 % Test CRC F9C83CA4 Copy CRC F9C83CA4 Track not present in AccurateRip database Copy OK
Track 3
Filename D:\flac\JECKYLL & HYDE (2007) THE ALBUM\03. LOST IN SPACE.wav
Peak level 100.0 % Track quality 100.0 % Test CRC B42A98C0 Copy CRC B42A98C0 Track not present in AccurateRip database Copy OK
Track 4
Filename D:\flac\JECKYLL & HYDE (2007) THE ALBUM\04. FROZEN FLAME.wav
Peak level 79.4 % Track quality 100.0 % Test CRC D4588E24 Copy CRC D4588E24 Track not present in AccurateRip database Copy OK
Track 5
Filename D:\flac\JECKYLL & HYDE (2007) THE ALBUM\05. THE LOST FILES.wav
Peak level 100.0 % Track quality 100.0 % Copy CRC E30A1944 Track not present in AccurateRip database Copy OK
Track 6
Filename D:\flac\JECKYLL & HYDE (2007) THE ALBUM\06. THE FLIPSIDE.wav
Peak level 70.7 % Track quality 99.9 % Test CRC 366643EE Copy CRC 366643EE Track not present in AccurateRip database Copy OK
Track 7
Filename D:\flac\JECKYLL & HYDE (2007) THE ALBUM\07. PRECIOUS DREAMER.wav
Peak level 100.0 % Track quality 99.9 % Test CRC 5A5CB68D Copy CRC 5A5CB68D Track not present in AccurateRip database Copy OK
Track 8
Filename D:\flac\JECKYLL & HYDE (2007) THE ALBUM\08. FREEFALL.wav
Peak level 89.1 % Track quality 100.0 % Test CRC 6F6CD2A5 Copy CRC 6F6CD2A5 Track not present in AccurateRip database Copy OK
Track 9
Filename D:\flac\JECKYLL & HYDE (2007) THE ALBUM\09. FROZEN FLAME (WEZZ & FISHER REMIX).wav
Peak level 89.1 % Track quality 100.0 % Test CRC C864404B Copy CRC C864404B Track not present in AccurateRip database Copy OK
Track 10
Filename D:\flac\JECKYLL & HYDE (2007) THE ALBUM\10. LOST IN TIME.wav
Peak level 79.4 % Track quality 100.0 % Test CRC 6AFCD56A Copy CRC 6AFCD56A Track not present in AccurateRip database Copy OK
Track 11
Filename D:\flac\JECKYLL & HYDE (2007) THE ALBUM\11. KICK THIS ONE.wav
Peak level 89.1 % Track quality 100.0 % Test CRC D518E3D9 Copy CRC D518E3D9 Track not present in AccurateRip database Copy OK
Track 12
Filename D:\flac\JECKYLL & HYDE (2007) THE ALBUM\12. IN TRANCE OF.wav
Peak level 94.8 % Track quality 100.0 % Test CRC C2EA1EF8 Copy CRC C2EA1EF8 Track not present in AccurateRip database Copy OK
Track 13
Filename D:\flac\JECKYLL & HYDE (2007) THE ALBUM\13. TIME FLIES.wav
Peak level 100.0 % Track quality 99.9 % Test CRC 71189A56 Copy CRC 71189A56 Track not present in AccurateRip database Copy OK
Track 14
Filename D:\flac\JECKYLL & HYDE (2007) THE ALBUM\14. END OF TIME.wav
Peak level 79.4 % Track quality 100.0 % Test CRC 296A9006 Copy CRC 296A9006 Track not present in AccurateRip database Copy OK
Track 15
Filename D:\flac\JECKYLL & HYDE (2007) THE ALBUM\15. PLAY IT LOUD (NOISE PROVIDER REMIX).wav
Peak level 89.1 % Track quality 99.9 % Test CRC 7B1FB13A Copy CRC 7B1FB13A Track not present in AccurateRip database Copy OK
Track 16
Filename D:\flac\JECKYLL & HYDE (2007) THE ALBUM\16. UNIVERSAL NATION.wav
Peak level 89.4 % Track quality 100.0 % Test CRC 799C1238 Copy CRC 799C1238 Track not present in AccurateRip database Copy OK
None of the tracks are present in the AccurateRip database
No errors occurred
End of status report

Лог auCDtect

-----------------------
DON'T MODIFY THIS FILE
-----------------------
PERFORMER: auCDtect Task Manager, ver. 1.5.1RC4 build 1.5.1.5Copyright (c) 2008-2010 y-soft. All rights reservedhttp://y-soft.org
ANALYZER: auCDtect: CD records authenticity detector, version 0.8.2Copyright (c) 2004 Oleg Berngardt. All rights reserved.Copyright (c) 2004 Alexander Djourik. All rights reserved.
FILE: 16 - Universal Nation.flac Size: 28262586 Hash: 445F77B3D2C627AADF23C34963548723 Accuracy: -m0 Conclusion: CDDA 100% Signature: 3128B197535FDE5055D9F5010F6A2AD826BABCE3FILE: 15 - Play It Loud (Noise Provider Remix).flac Size: 29805291 Hash: 5513E9DD4B1D4F88A4BDFE5E7F252149 Accuracy: -m0 Conclusion: CDDA 100% Signature: 0E7901E8F92500970F42B625861634895E12E4A1FILE: 14 - End Of Time.flac Size: 28495367 Hash: 5B106225E7D4EF3D446413F675481EF1 Accuracy: -m0 Conclusion: CDDA 100% Signature: 60C0FBA33587ECB284343C4233C21A7E0A7BC33AFILE: 13 - Time Flies.flac Size: 28077734 Hash: FADD6B7F921FC5411AFF5E04E43E80E4 Accuracy: -m0 Conclusion: CDDA 100% Signature: 1E84091E6DB7B59E30DAF9FD130CC63F52634924FILE: 12 - In Trance Of.flac Size: 27755425 Hash: 55C0B5CDD5A853757072D858702A9980 Accuracy: -m0 Conclusion: CDDA 100% Signature: E853DA9FBDA107BA4B1136B5DD7C079BB53B28EDFILE: 11 - Kick This One.flac Size: 31313480 Hash: 636512241C21B450E00B57D6312DA8CE Accuracy: -m0 Conclusion: CDDA 100% Signature: 96B09C858CB35118D00F93747FCAC7EFA15080C7FILE: 10 - Lost In Time.flac Size: 32001019 Hash: ACC032E379943A8249380C3A202BCA94 Accuracy: -m0 Conclusion: CDDA 100% Signature: 3C73D68BF3EA48121AF9D9362BF709921EF83B42FILE: 09 - Frozen Flame (Wezz & Fisher Extended Remix).flac Size: 53374927 Hash: E8A2F64FC85670559FF1B534984B6F11 Accuracy: -m0 Conclusion: CDDA 100% Signature: D057107F65ADAC81F2A5AE5CF21D60BFD7E6A0DAFILE: 08 - Freefall.flac Size: 23551264 Hash: 365E8D41927AD0CD4CBA58DD2C75F09D Accuracy: -m0 Conclusion: CDDA 100% Signature: AA007E4792582D5BA052C0B9FAF25207046D82FAFILE: 07 - Precious Dreamer.flac Size: 35037630 Hash: 810823CF719B46C87F0D30E1552B3114 Accuracy: -m0 Conclusion: CDDA 100% Signature: 747275E1FE28EF128E16143DA725BC97847EB674FILE: 06 - The Flipside.flac Size: 24136979 Hash: E2A9AEEAB1EC69514FD3AA6EB0F4FD5C Accuracy: -m0 Conclusion: CDDA 100% Signature: FC21A343A4335A2C10651E37D9D2DB63B56797D7FILE: 05 - The Lost Files.flac Size: 28570558 Hash: 24296A8F7604B8DF213922592834C88C Accuracy: -m0 Conclusion: CDDA 99% Signature: E66C9A81ED06593736F8CC8BA91F1392988DDBB0FILE: 04 - Frozen Flame.flac Size: 29370873 Hash: BBDD8620329630851A86AE68840D0876 Accuracy: -m0 Conclusion: CDDA 100% Signature: F05A0487DB9F3CFA781E33D6742B05D7305BF438FILE: 03 - Lost In Space.flac Size: 24707749 Hash: 29AA6A1F50E24C4826A393A7D18357F3 Accuracy: -m0 Conclusion: CDDA 100% Signature: 58B92C88C9D45FF5FF8FA88913313E36D277B722FILE: 02 - La Dans Macabre.flac Size: 30103389 Hash: 0D41296B1C3013C3474A5EC9A8CB0926 Accuracy: -m0 Conclusion: CDDA 100% Signature: 7C1BD1D2757E83DE7040F7F6C5C5189DD46A68B6FILE: 01 - Intro.flac Size: 10093437 Hash: 814DD0D5A8974E1A750F38A3A4B71F6C Accuracy: -m0 Conclusion: CDDA 100% Signature: 4F1D0CB8E66762296C3E7A7A2514D6A5F1B01204

_________________
Показать сообщения:    

Текущее время: Сегодня 11:47

Часовой пояс: GMT



Вы не можете начинать темы
Вы не можете отвечать на сообщения
Вы не можете редактировать свои сообщения
Вы не можете удалять свои сообщения
Вы не можете голосовать в опросах
Вы не можете прикреплять файлы к сообщениям
Вы не можете скачивать файлы