Важное объявление!
У Нас Все раздачи мультитрекерные, при нуле пиров в релизах, можете смело вставать на закачку!
 
Автор Сообщение

HUNTER

Стаж:
4 года 4 месяца
Сообщений:
56765

Репутация: 101

[+] [-]
Вне форума [Профиль] [ЛС]

Sheffield Jumpers - Jump With Me
Жанр: Jumpstyle
Носитель: CD
Страна-производитель диска: Germany
Год издания: 2008
Издатель (лейбл): Sheffield Tunes
Номер по каталогу: 0192435STU
Аудиокодек: FLAC (*.flac)
Тип рипа: image+.cue
Битрейт аудио: lossless
Продолжительность: 00:13:00
Источник (релизер): собственный рип
Наличие сканов в содержимом раздачи: да

Треклист:
01. Jump With Me (Radio Edit) (3:48)
02. Jump With Me (Club Mix) (5:18)
03. Rock Da House (3:54)
+ Jump With Me (The Video) (3:17)-
-

Лог создания рипа

Exact Audio Copy V1.0 beta 3 from 29. August 2011
EAC extraction logfile from 4. October 2014, 18:36
Sheffield Jumpers / Jump With Me
Used drive : _NEC DVD_RW ND-7550A Adapter: 1 ID: 0
Read mode : SecureUtilize accurate stream : YesDefeat audio cache : YesMake use of C2 pointers : No
Read offset correction : 48Overread into Lead-In and Lead-Out : NoFill up missing offset samples with silence : YesDelete leading and trailing silent blocks : NoNull samples used in CRC calculations : YesUsed interface : Native Win32 interface for Win NT & 2000
Used output format : User Defined EncoderSelected bitrate : 1024 kBit/sQuality : HighAdd ID3 tag : NoCommand line compressor : D:\Program Files\Exact Audio Copy 1.0b3\Flac\flac.exeAdditional command line options : -V -8 -T "Date=%year%" -T "Genre=%genre%" %source%
TOC of the extracted CD
Track | Start | Length | Start sector | End sector --------------------------------------------------------- 1 | 0:00.00 | 3:47.39 | 0 | 17063 2 | 3:47.39 | 5:18.02 | 17064 | 40915 3 | 9:05.41 | 3:54.34 | 40916 | 58499 4 | 15:32.00 | 3:47.38 | 69900 | 86962
Range status and errors
Selected range
Filename C:\Sheffield Jumpers - Jump With Me.wav
Peak level 98.8 % Extraction speed 3.5 X Range quality 100.0 % Test CRC 645B24A0 Copy CRC 645B24A0 Copy OK
No errors occurred
AccurateRip summary
Track 1 accurately ripped (confidence 3) [6A5B5A7B] (AR v1)Track 2 accurately ripped (confidence 3) [56CB3AAA] (AR v1)Track 3 accurately ripped (confidence 3) [81F2740E] (AR v1)
All tracks accurately ripped
End of status report
==== Log checksum 768C3A4D353ED7915B96B6BCCAA9D8189323F014849EEE5866110E688286431A ====

О видеоклипе

Формат: MPEG-PS
Видео кодек: MPEG Video
Аудио кодек: MPEG Audio
Видео: Разрешение: 352x288 Кадр/сек: 25,00 Битрейт: 1150 Кбит/сек Фактор качества: 0.454 b/px
Аудио: Количество каналов: 2 Частота дискретизации: 44,1 КГц Битрейт: 224 Кбит/сек
Скриншоты:

-
-

_________________
Показать сообщения:    

Текущее время: Сегодня 20:43

Часовой пояс: GMT



Вы не можете начинать темы
Вы не можете отвечать на сообщения
Вы не можете редактировать свои сообщения
Вы не можете удалять свои сообщения
Вы не можете голосовать в опросах
Вы не можете прикреплять файлы к сообщениям
Вы не можете скачивать файлы