Важное объявление!
У Нас Все раздачи мультитрекерные, при нуле пиров в релизах, можете смело вставать на закачку!
 
Автор Сообщение

HUNTER

Стаж:
4 года 4 месяца
Сообщений:
56734

Репутация: 101

[+] [-]
Вне форума [Профиль] [ЛС]

Jorge Paez Jr. vs. Ronald Montes & Undercard / Хорхе Паэс-младший - Рональд Монтес + Андеркарт-
Дата/Год выпуска: 21.02.2015
Вид спорта: Бокс
Язык комментариев: Испанский
Канал: UniMas HD
Место проведения: "Auditorio Municipal", Окосокоаутла де Эспиноса, Чиапас, Мексика.-Описание: Мексиканский полусредневес Хорхе Паэс-младший (35-7-2, 22 КО) вернётся на ринг 21 февраля в Чипасе (Мексика). На эту дату у него запланирован поединок с Рональдом Монтесом (16-1-0, 14 КО) в рамках турнира, организатором которого выступит компания Zanfer Promotions.-Автор рипа/записи: nabucghost-Качество: HDTV 720p
Формат: MKV
Видео: 1280x720 (16:9), 59,940 fps, H264, ~8000 kbps avg, ~0.144 bit/pixel
Аудио: 48 kHz, AC3, 2/0 (L,R) ch, ~256.00 kbps avg-

Список боев

1. Ivan Montero [16-0] vs. Michel Rosales [32-8] - 8 Rounds in the Super Welterweight Division
2. Cristian Cruz [DEBUT] vs. Luis Zambrano [1-4] - 4 Rounds in the Super Welterweight Division
3. Jorge Paez Jr. [37-5-2] vs. Ronald Montes [16-1] - 10 Rounds in the Super Welterweight Division

Продолжительность

1. Ivan Montero vs. Michel Rosales (0:33:28)
2. Cristian Cruz vs. Luis Zambrano (0:16:39)
3. Jorge Paez Jr. vs. Ronald Montes (0:19:22)

Скриншоты

MediaInfo

1.-.Ivan.Montero.vs.Michel.Rosales.60fps.HDTV.720p.x264-SPA-lrn.mkv
GeneralUnique ID : 191236891107819935129069600468936813089 (0x8FDEE2B07ED72529862FE19D39F1EA21)Complete name : E:\uTorrent.Temp\Temp\Jorge Paez Jr. vs. Ronald Montes & Undercard [60fps, HDTV 720p, SPA]\1.-.Ivan.Montero.vs.Michel.Rosales.60fps.HDTV.720p.x264-SPA-lrn.mkvFormat : MatroskaFormat version : Version 4 / Version 2File size : 1.97 GiBDuration : 33mn 28sOverall bit rate : 8 404 KbpsMovie name : 'Jorge Paez Jr. vs. Ronald Montes & Undercard [60fps, HDTV 720p, ENG]' by lrn © 2015Encoded date : UTC 2010-02-22 21:41:31Writing application : mkvmerge v5.9.0 ('On The Loose') built on Dec 9 2012 15:37:01Writing library : libebml v1.3.0 + libmatroska v1.4.0
VideoID : 1Format : AVCFormat/Info : Advanced Video CodecFormat profile : High@L4.0Format settings, CABAC : YesFormat settings, ReFrames : 3 framesCodec ID : V_MPEG4/ISO/AVCDuration : 33mn 28sBit rate : 7 980 KbpsWidth : 1 280 pixelsHeight : 720 pixelsDisplay aspect ratio : 16:9Frame rate mode : ConstantFrame rate : 60.000 fpsOriginal frame rate : 59.940 fpsStandard : ComponentColor space : YUVChroma subsampling : 4:2:0Bit depth : 8 bitsScan type : ProgressiveBits/(Pixel*Frame) : 0.144Stream size : 1.87 GiB (95%)Default : YesForced : NoColor primaries : BT.709Transfer characteristics : BT.709Matrix coefficients : BT.709Color range : Limited
AudioID : 2Format : AC-3Format/Info : Audio Coding 3Mode extension : CM (complete main)Format settings, Endianness : BigCodec ID : A_AC3Duration : 33mn 28sBit rate mode : ConstantBit rate : 256 KbpsChannel(s) : 2 channelsChannel positions : Front: L RSampling rate : 48.0 KHzBit depth : 16 bitsCompression mode : LossyDelay relative to video : 30msStream size : 61.3 MiB (3%)Language : SpanishDefault : YesForced : No

2.-.Cristian.Cruz.vs.Luis.Zambrano.60fps.HDTV.720p.x264-SPA-lrn.mkv

GeneralUnique ID : 202323017096271355108214450606570185114 (0x9835FEE69E266E1E95F3220FC78BA19A)Complete name : E:\uTorrent.Temp\Temp\Jorge Paez Jr. vs. Ronald Montes & Undercard [60fps, HDTV 720p, SPA]\2.-.Cristian.Cruz.vs.Luis.Zambrano.60fps.HDTV.720p.x264-SPA-lrn.mkvFormat : MatroskaFormat version : Version 4 / Version 2File size : 1 016 MiBDuration : 16mn 39sOverall bit rate : 8 528 KbpsMovie name : 'Jorge Paez Jr. vs. Ronald Montes & Undercard [60fps, HDTV 720p, ENG]' by lrn © 2015Encoded date : UTC 2010-02-22 21:41:31Writing application : mkvmerge v5.9.0 ('On The Loose') built on Dec 9 2012 15:37:01Writing library : libebml v1.3.0 + libmatroska v1.4.0
VideoID : 1Format : AVCFormat/Info : Advanced Video CodecFormat profile : High@L4.0Format settings, CABAC : YesFormat settings, ReFrames : 3 framesCodec ID : V_MPEG4/ISO/AVCDuration : 16mn 39sBit rate : 8 102 KbpsWidth : 1 280 pixelsHeight : 720 pixelsDisplay aspect ratio : 16:9Frame rate mode : ConstantFrame rate : 59.880 fpsOriginal frame rate : 59.940 fpsStandard : ComponentColor space : YUVChroma subsampling : 4:2:0Bit depth : 8 bitsScan type : ProgressiveBits/(Pixel*Frame) : 0.147Stream size : 965 MiB (95%)Default : YesForced : NoColor primaries : BT.709Transfer characteristics : BT.709Matrix coefficients : BT.709Color range : Limited
AudioID : 2Format : AC-3Format/Info : Audio Coding 3Mode extension : CM (complete main)Format settings, Endianness : BigCodec ID : A_AC3Duration : 16mn 39sBit rate mode : ConstantBit rate : 256 KbpsChannel(s) : 2 channelsChannel positions : Front: L RSampling rate : 48.0 KHzBit depth : 16 bitsCompression mode : LossyDelay relative to video : 27msStream size : 30.5 MiB (3%)Language : SpanishDefault : YesForced : No

3.-.Jorge.Paez.Jr.vs.Ronald.Montes.60fps.HDTV.720p.x264-SPA-lrn.mkv

GeneralUnique ID : 243920075420158099674438017808287843380 (0xB7814C37F5DB1610845119BAC772C434)Complete name : E:\uTorrent.Temp\Temp\Jorge Paez Jr. vs. Ronald Montes & Undercard [60fps, HDTV 720p, SPA]\3.-.Jorge.Paez.Jr.vs.Ronald.Montes.60fps.HDTV.720p.x264-SPA-lrn.mkvFormat : MatroskaFormat version : Version 4 / Version 2File size : 1.13 GiBDuration : 19mn 22sOverall bit rate : 8 350 KbpsMovie name : 'Jorge Paez Jr. vs. Ronald Montes & Undercard [60fps, HDTV 720p, ENG]' by lrn © 2015Encoded date : UTC 2010-02-22 21:41:31Writing application : mkvmerge v5.9.0 ('On The Loose') built on Dec 9 2012 15:37:01Writing library : libebml v1.3.0 + libmatroska v1.4.0
VideoID : 1Format : AVCFormat/Info : Advanced Video CodecFormat profile : High@L4.0Format settings, CABAC : YesFormat settings, ReFrames : 2 framesFormat settings, GOP : M=3, N=13Codec ID : V_MPEG4/ISO/AVCDuration : 19mn 22sBit rate : 7 928 KbpsWidth : 1 280 pixelsHeight : 720 pixelsDisplay aspect ratio : 16:9Frame rate mode : ConstantFrame rate : 60.000 fpsOriginal frame rate : 59.940 fpsColor space : YUVChroma subsampling : 4:2:0Bit depth : 8 bitsScan type : ProgressiveBits/(Pixel*Frame) : 0.143Stream size : 1.07 GiB (95%)Default : YesForced : No
AudioID : 2Format : AC-3Format/Info : Audio Coding 3Mode extension : CM (complete main)Format settings, Endianness : BigCodec ID : A_AC3Duration : 19mn 22sBit rate mode : ConstantBit rate : 256 KbpsChannel(s) : 2 channelsChannel positions : Front: L RSampling rate : 48.0 KHzBit depth : 16 bitsCompression mode : LossyDelay relative to video : 30msStream size : 35.5 MiB (3%)Language : SpanishDefault : YesForced : No

_________________
Показать сообщения:    

Текущее время: Сегодня 18:17

Часовой пояс: GMT



Вы не можете начинать темы
Вы не можете отвечать на сообщения
Вы не можете редактировать свои сообщения
Вы не можете удалять свои сообщения
Вы не можете голосовать в опросах
Вы не можете прикреплять файлы к сообщениям
Вы не можете скачивать файлы