Важное объявление!
У Нас Все раздачи мультитрекерные, при нуле пиров в релизах, можете смело вставать на закачку!
 
Автор Сообщение

HUNTER

Стаж:
4 года 4 месяца
Сообщений:
56719

Репутация: 101

[+] [-]
Вне форума [Профиль] [ЛС]

Базы данных в Java
Год выпуска: 2015
Производитель: JavaBegin
Автор: Тимур Батыршинов
Сайт производителя: javabegin.ru/products/bd
Продолжительность: 4:51
Тип раздаваемого материала: Интерактивный диск
Язык: Русский
Описание: Легкий и понятный способ начать работу с базами данных из Java.
Файлы примеров: присутствуют
Формат видео: MP4
Видео: AVC, 1280x720(16:9)/1280x800(16:10)/1206x800(3:2), 15fps, 171kbps
Аудио: AAC, 44.1kHz, 126kbps, stereo

MediaInfo

General
Complete name : C:\course\video\Intro\CourseIntro.mp4
Format : MPEG-4
Format profile : Base Media / Version 2
Codec ID : mp42
File size : 5.19 MiB
Duration : 2mn 34s
Overall bit rate mode : Variable
Overall bit rate : 282 Kbps
Encoded date : UTC 2013-04-05 07:33:09
Tagged date : UTC 2013-04-05 07:33:09
Video
ID : 1
Format : AVC
Format/Info : Advanced Video Codec
Format profile : High@L3.1
Format settings, CABAC : Yes
Format settings, ReFrames : 3 frames
Codec ID : avc1
Codec ID/Info : Advanced Video Coding
Duration : 2mn 34s
Source duration : 2mn 34s
Bit rate : 153 Kbps
Width : 1 280 pixels
Height : 720 pixels
Display aspect ratio : 16:9
Frame rate mode : Variable
Frame rate : 30.000 fps
Minimum frame rate : 30.000 fps
Maximum frame rate : 30.030 fps
Standard : NTSC
Color space : YUV
Chroma subsampling : 4:2:0
Bit depth : 8 bits
Scan type : Progressive
Bits/(Pixel*Frame) : 0.006
Stream size : 2.82 MiB (54%)
Source stream size : 2.82 MiB (54%)
Language : English
Encoded date : UTC 2013-04-05 07:33:09
Tagged date : UTC 2013-04-05 07:33:09
Color range : Limited
Color primaries : BT.709
Transfer characteristics : BT.709
Matrix coefficients : BT.709
mdhd_Duration : 154200
Audio
ID : 2
Format : AAC
Format/Info : Advanced Audio Codec
Format profile : LC
Codec ID : 40
Duration : 2mn 34s
Source duration : 2mn 34s
Bit rate mode : Variable
Bit rate : 126 Kbps
Maximum bit rate : 231 Kbps
Channel(s) : 2 channels
Channel positions : Front: L R
Sampling rate : 44.1 KHz
Compression mode : Lossy
Stream size : 2.31 MiB (45%)
Source stream size : 2.31 MiB (45%)
Language : English
Encoded date : UTC 2013-04-05 07:33:09
Tagged date : UTC 2013-04-05 07:33:09
mdhd_Duration : 154227
General
Complete name : C:\course\video\DB\10-TablesAnalyze-2.mp4
Format : MPEG-4
Format profile : Base Media / Version 2
Codec ID : mp42
File size : 12.6 MiB
Duration : 10mn 56s
Overall bit rate : 161 Kbps
Encoded date : UTC 2012-07-06 13:10:57
Tagged date : UTC 2012-07-06 13:10:57
Video
ID : 1
Format : AVC
Format/Info : Advanced Video Codec
Format profile : High@L3.2
Format settings, CABAC : Yes
Format settings, ReFrames : 4 frames
Format settings, GOP : M=1, N=75
Codec ID : avc1
Codec ID/Info : Advanced Video Coding
Duration : 10mn 56s
Source duration : 10mn 56s
Bit rate : 105 Kbps
Width : 1 206 pixels
Height : 800 pixels
Display aspect ratio : 3:2
Frame rate mode : Constant
Frame rate : 15.000 fps
Color space : YUV
Chroma subsampling : 4:2:0
Bit depth : 8 bits
Scan type : Progressive
Bits/(Pixel*Frame) : 0.007
Stream size : 8.25 MiB (65%)
Source stream size : 8.25 MiB (65%)
Language : English
Encoded date : UTC 2012-07-06 13:10:57
Tagged date : UTC 2012-07-06 13:10:57
Color range : Limited
Color primaries : BT.709
Transfer characteristics : BT.709
Matrix coefficients : BT.709
mdhd_Duration : 656282
Audio
ID : 2
Format : AAC
Format/Info : Advanced Audio Codec
Format profile : LC
Codec ID : 40
Duration : 10mn 56s
Source duration : 10mn 56s
Bit rate mode : Constant
Bit rate : 53.6 Kbps
Channel(s) : 2 channels
Channel positions : Front: L R
Sampling rate : 44.1 KHz
Compression mode : Lossy
Stream size : 4.19 MiB (33%)
Source stream size : 4.19 MiB (33%)
Language : English
Encoded date : UTC 2012-07-06 13:10:57
Tagged date : UTC 2012-07-06 13:10:57
mdhd_Duration : 656155
General
Complete name : C:\course\video\DB\8-SQL_Join.mp4
Format : MPEG-4
Format profile : Base Media / Version 2
Codec ID : mp42
File size : 27.4 MiB
Duration : 22mn 25s
Overall bit rate : 171 Kbps
Encoded date : UTC 2012-09-18 16:23:51
Tagged date : UTC 2012-09-18 16:23:51
Video
ID : 1
Format : AVC
Format/Info : Advanced Video Codec
Format profile : High@L3.2
Format settings, CABAC : Yes
Format settings, ReFrames : 4 frames
Codec ID : avc1
Codec ID/Info : Advanced Video Coding
Duration : 22mn 25s
Source duration : 22mn 25s
Bit rate : 115 Kbps
Width : 1 206 pixels
Height : 800 pixels
Display aspect ratio : 3:2
Frame rate mode : Constant
Frame rate : 15.000 fps
Color space : YUV
Chroma subsampling : 4:2:0
Bit depth : 8 bits
Scan type : Progressive
Bits/(Pixel*Frame) : 0.008
Stream size : 18.4 MiB (67%)
Source stream size : 18.4 MiB (67%)
Language : English
Encoded date : UTC 2012-09-18 16:23:51
Tagged date : UTC 2012-09-18 16:23:51
Color range : Limited
Color primaries : BT.709
Transfer characteristics : BT.709
Matrix coefficients : BT.709
mdhd_Duration : 1345581
Audio
ID : 2
Format : AAC
Format/Info : Advanced Audio Codec
Format profile : LC
Codec ID : 40
Duration : 22mn 25s
Source duration : 22mn 25s
Bit rate mode : Constant
Bit rate : 53.6 Kbps
Channel(s) : 2 channels
Channel positions : Front: L R
Sampling rate : 44.1 KHz
Compression mode : Lossy
Stream size : 8.60 MiB (31%)
Source stream size : 8.60 MiB (31%)
Language : English
Encoded date : UTC 2012-09-18 16:23:51
Tagged date : UTC 2012-09-18 16:23:51
mdhd_Duration : 1344859
General
Complete name : C:\course\video\DB\7-SQL_Select.mp4
Format : MPEG-4
Format profile : Base Media / Version 2
Codec ID : mp42
File size : 24.2 MiB
Duration : 15mn 26s
Overall bit rate : 219 Kbps
Encoded date : UTC 2012-09-18 16:11:29
Tagged date : UTC 2012-09-18 16:11:29
Video
ID : 1
Format : AVC
Format/Info : Advanced Video Codec
Format profile : High@L3.2
Format settings, CABAC : Yes
Format settings, ReFrames : 4 frames
Format settings, GOP : M=1, N=75
Codec ID : avc1
Codec ID/Info : Advanced Video Coding
Duration : 15mn 26s
Source duration : 15mn 26s
Bit rate : 164 Kbps
Width : 1 206 pixels
Height : 800 pixels
Display aspect ratio : 3:2
Frame rate mode : Constant
Frame rate : 15.000 fps
Color space : YUV
Chroma subsampling : 4:2:0
Bit depth : 8 bits
Scan type : Progressive
Bits/(Pixel*Frame) : 0.011
Stream size : 18.1 MiB (75%)
Source stream size : 18.1 MiB (75%)
Language : English
Encoded date : UTC 2012-09-18 16:11:29
Tagged date : UTC 2012-09-18 16:11:29
Color range : Limited
Color primaries : BT.709
Transfer characteristics : BT.709
Matrix coefficients : BT.709
mdhd_Duration : 926550
Audio
ID : 2
Format : AAC
Format/Info : Advanced Audio Codec
Format profile : LC
Codec ID : 40
Duration : 15mn 26s
Source duration : 15mn 26s
Bit rate mode : Constant
Bit rate : 53.6 Kbps
Channel(s) : 2 channels
Channel positions : Front: L R
Sampling rate : 44.1 KHz
Compression mode : Lossy
Stream size : 5.92 MiB (24%)
Source stream size : 5.92 MiB (24%)
Language : English
Encoded date : UTC 2012-09-18 16:11:29
Tagged date : UTC 2012-09-18 16:11:29
mdhd_Duration : 926172
General
Complete name : C:\course\video\DB\4-Designing.mp4
Format : MPEG-4
Format profile : Base Media / Version 2
Codec ID : mp42
File size : 34.7 MiB
Duration : 26mn 0s
Overall bit rate : 187 Kbps
Encoded date : UTC 2012-09-15 05:23:26
Tagged date : UTC 2012-09-15 05:23:26
Video
ID : 1
Format : AVC
Format/Info : Advanced Video Codec
Format profile : High@L3.2
Format settings, CABAC : Yes
Format settings, ReFrames : 4 frames
Codec ID : avc1
Codec ID/Info : Advanced Video Coding
Duration : 26mn 0s
Source duration : 26mn 0s
Bit rate : 131 Kbps
Width : 1 280 pixels
Height : 800 pixels
Display aspect ratio : 16:10
Frame rate mode : Constant
Frame rate : 15.000 fps
Color space : YUV
Chroma subsampling : 4:2:0
Bit depth : 8 bits
Scan type : Progressive
Bits/(Pixel*Frame) : 0.009
Stream size : 24.4 MiB (70%)
Source stream size : 24.4 MiB (70%)
Language : English
Encoded date : UTC 2012-09-15 05:23:26
Tagged date : UTC 2012-09-15 05:23:26
Color range : Limited
Color primaries : BT.709
Transfer characteristics : BT.709
Matrix coefficients : BT.709
mdhd_Duration : 1560262
Audio
ID : 2
Format : AAC
Format/Info : Advanced Audio Codec
Format profile : LC
Codec ID : 40
Duration : 26mn 0s
Source duration : 26mn 0s
Bit rate mode : Constant
Bit rate : 53.6 Kbps
Channel(s) : 2 channels
Channel positions : Front: L R
Sampling rate : 44.1 KHz
Compression mode : Lossy
Stream size : 9.96 MiB (29%)
Source stream size : 9.96 MiB (29%)
Language : English
Encoded date : UTC 2012-09-15 05:23:26
Tagged date : UTC 2012-09-15 05:23:26
mdhd_Duration : 1559328
General
Complete name : C:\course\video\DB\14-JTable_part2.mp4
Format : MPEG-4
Format profile : Base Media / Version 2
Codec ID : mp42
File size : 31.1 MiB
Duration : 19mn 12s
Overall bit rate : 226 Kbps
Encoded date : UTC 2012-07-12 18:27:09
Tagged date : UTC 2012-07-12 18:27:09
Video
ID : 1
Format : AVC
Format/Info : Advanced Video Codec
Format profile : High@L3.2
Format settings, CABAC : Yes
Format settings, ReFrames : 4 frames
Format settings, GOP : M=1, N=75
Codec ID : avc1
Codec ID/Info : Advanced Video Coding
Duration : 19mn 12s
Source duration : 19mn 12s
Bit rate : 171 Kbps
Width : 1 206 pixels
Height : 800 pixels
Display aspect ratio : 3:2
Frame rate mode : Constant
Frame rate : 15.000 fps
Color space : YUV
Chroma subsampling : 4:2:0
Bit depth : 8 bits
Scan type : Progressive
Bits/(Pixel*Frame) : 0.012
Stream size : 23.4 MiB (75%)
Source stream size : 23.4 MiB (75%)
Language : English
Encoded date : UTC 2012-07-12 18:27:09
Tagged date : UTC 2012-07-12 18:27:09
Color range : Limited
Color primaries : BT.709
Transfer characteristics : BT.709
Matrix coefficients : BT.709
mdhd_Duration : 1152428
Audio
ID : 2
Format : AAC
Format/Info : Advanced Audio Codec
Format profile : LC
Codec ID : 40
Duration : 19mn 12s
Source duration : 19mn 12s
Bit rate mode : Constant
Bit rate : 53.6 Kbps
Channel(s) : 2 channels
Channel positions : Front: L R
Sampling rate : 44.1 KHz
Compression mode : Lossy
Stream size : 7.36 MiB (24%)
Source stream size : 7.36 MiB (24%)
Language : English
Encoded date : UTC 2012-07-12 18:27:09
Tagged date : UTC 2012-07-12 18:27:09
mdhd_Duration : 1151890
General
Complete name : C:\course\video\DB\13-JTable_part1.mp4
Format : MPEG-4
Format profile : Base Media / Version 2
Codec ID : mp42
File size : 24.0 MiB
Duration : 16mn 12s
Overall bit rate : 207 Kbps
Encoded date : UTC 2012-07-12 17:43:27
Tagged date : UTC 2012-07-12 17:43:27
Video
ID : 1
Format : AVC
Format/Info : Advanced Video Codec
Format profile : High@L3.2
Format settings, CABAC : Yes
Format settings, ReFrames : 4 frames
Format settings, GOP : M=1, N=75
Codec ID : avc1
Codec ID/Info : Advanced Video Coding
Duration : 16mn 12s
Source duration : 16mn 12s
Bit rate : 137 Kbps
Width : 1 206 pixels
Height : 800 pixels
Display aspect ratio : 3:2
Frame rate mode : Constant
Frame rate : 15.000 fps
Color space : YUV
Chroma subsampling : 4:2:0
Bit depth : 8 bits
Scan type : Progressive
Bits/(Pixel*Frame) : 0.009
Stream size : 15.8 MiB (66%)
Source stream size : 17.6 MiB (73%)
Language : English
Encoded date : UTC 2012-07-12 17:43:27
Tagged date : UTC 2012-07-12 17:43:27
Color range : Limited
Color primaries : BT.709
Transfer characteristics : BT.709
Matrix coefficients : BT.709
mdhd_Duration : 972072
Audio
ID : 2
Format : AAC
Format/Info : Advanced Audio Codec
Format profile : LC
Codec ID : 40
Duration : 16mn 12s
Source duration : 16mn 12s
Bit rate mode : Constant
Bit rate : 53.6 Kbps
Channel(s) : 2 channels
Channel positions : Front: L R
Sampling rate : 44.1 KHz
Compression mode : Lossy
Stream size : 6.21 MiB (26%)
Source stream size : 6.21 MiB (26%)
Language : English
Encoded date : UTC 2012-07-12 17:43:27
Tagged date : UTC 2012-07-12 17:43:27
mdhd_Duration : 971701
General
Complete name : C:\course\video\DB\12-ConnectSQLiteJDBC.mp4
Format : MPEG-4
Format profile : Base Media / Version 2
Codec ID : mp42
File size : 32.1 MiB
Duration : 23mn 37s
Overall bit rate : 190 Kbps
Encoded date : UTC 2012-07-09 13:02:42
Tagged date : UTC 2012-07-09 13:02:42
Video
ID : 1
Format : AVC
Format/Info : Advanced Video Codec
Format profile : High@L3.2
Format settings, CABAC : Yes
Format settings, ReFrames : 4 frames
Codec ID : avc1
Codec ID/Info : Advanced Video Coding
Duration : 23mn 37s
Source duration : 23mn 37s
Bit rate : 135 Kbps
Width : 1 206 pixels
Height : 800 pixels
Display aspect ratio : 3:2
Frame rate mode : Constant
Frame rate : 15.000 fps
Color space : YUV
Chroma subsampling : 4:2:0
Bit depth : 8 bits
Scan type : Progressive
Bits/(Pixel*Frame) : 0.009
Stream size : 22.7 MiB (71%)
Source stream size : 22.7 MiB (71%)
Language : English
Encoded date : UTC 2012-07-09 13:02:42
Tagged date : UTC 2012-07-09 13:02:42
Color range : Limited
Color primaries : BT.709
Transfer characteristics : BT.709
Matrix coefficients : BT.709
mdhd_Duration : 1416897
Audio
ID : 2
Format : AAC
Format/Info : Advanced Audio Codec
Format profile : LC
Codec ID : 40
Duration : 23mn 37s
Source duration : 23mn 37s
Bit rate mode : Constant
Bit rate : 53.6 Kbps
Channel(s) : 2 channels
Channel positions : Front: L R
Sampling rate : 44.1 KHz
Compression mode : Lossy
Stream size : 9.05 MiB (28%)
Source stream size : 9.05 MiB (28%)
Language : English
Encoded date : UTC 2012-07-09 13:02:42
Tagged date : UTC 2012-07-09 13:02:42
mdhd_Duration : 1416086
General
Complete name : C:\course\video\DB\11-JDBC.mp4
Format : MPEG-4
Format profile : Base Media / Version 2
Codec ID : mp42
File size : 17.3 MiB
Duration : 13mn 45s
Overall bit rate : 176 Kbps
Encoded date : UTC 2012-07-05 15:40:43
Tagged date : UTC 2012-07-05 15:40:43
Video
ID : 1
Format : AVC
Format/Info : Advanced Video Codec
Format profile : High@L3.2
Format settings, CABAC : Yes
Format settings, ReFrames : 4 frames
Format settings, GOP : M=1, N=75
Codec ID : avc1
Codec ID/Info : Advanced Video Coding
Duration : 13mn 45s
Source duration : 13mn 45s
Bit rate : 120 Kbps
Width : 1 206 pixels
Height : 800 pixels
Display aspect ratio : 3:2
Frame rate mode : Constant
Frame rate : 15.000 fps
Color space : YUV
Chroma subsampling : 4:2:0
Bit depth : 8 bits
Scan type : Progressive
Bits/(Pixel*Frame) : 0.008
Stream size : 11.8 MiB (68%)
Source stream size : 11.8 MiB (68%)
Language : English
Encoded date : UTC 2012-07-05 15:40:43
Tagged date : UTC 2012-07-05 15:40:43
Color range : Limited
Color primaries : BT.709
Transfer characteristics : BT.709
Matrix coefficients : BT.709
mdhd_Duration : 825308
Audio
ID : 2
Format : AAC
Format/Info : Advanced Audio Codec
Format profile : LC
Codec ID : 40
Duration : 13mn 45s
Source duration : 13mn 45s
Bit rate mode : Constant
Bit rate : 53.6 Kbps
Channel(s) : 2 channels
Channel positions : Front: L R
Sampling rate : 44.1 KHz
Compression mode : Lossy
Stream size : 5.27 MiB (31%)
Source stream size : 5.27 MiB (31%)
Language : English
Encoded date : UTC 2012-07-05 15:40:43
Tagged date : UTC 2012-07-05 15:40:43
mdhd_Duration : 825026
General
Complete name : C:\course\video\DB\9-SQL_Subquery.mp4
Format : MPEG-4
Format profile : Base Media / Version 2
Codec ID : mp42
File size : 26.3 MiB
Duration : 23mn 34s
Overall bit rate : 156 Kbps
Encoded date : UTC 2012-07-05 14:07:46
Tagged date : UTC 2012-07-05 14:07:46
Video
ID : 1
Format : AVC
Format/Info : Advanced Video Codec
Format profile : High@L3.2
Format settings, CABAC : Yes
Format settings, ReFrames : 4 frames
Codec ID : avc1
Codec ID/Info : Advanced Video Coding
Duration : 23mn 34s
Source duration : 23mn 35s
Bit rate : 100 Kbps
Width : 1 206 pixels
Height : 800 pixels
Display aspect ratio : 3:2
Frame rate mode : Constant
Frame rate : 15.000 fps
Color space : YUV
Chroma subsampling : 4:2:0
Bit depth : 8 bits
Scan type : Progressive
Bits/(Pixel*Frame) : 0.007
Stream size : 16.9 MiB (64%)
Source stream size : 16.9 MiB (64%)
Language : English
Encoded date : UTC 2012-07-05 14:07:46
Tagged date : UTC 2012-07-05 14:07:46
Color range : Limited
Color primaries : BT.709
Transfer characteristics : BT.709
Matrix coefficients : BT.709
mdhd_Duration : 1414831
Audio
ID : 2
Format : AAC
Format/Info : Advanced Audio Codec
Format profile : LC
Codec ID : 40
Duration : 23mn 34s
Source duration : 23mn 35s
Bit rate mode : Constant
Bit rate : 53.6 Kbps
Channel(s) : 2 channels
Channel positions : Front: L R
Sampling rate : 44.1 KHz
Compression mode : Lossy
Stream size : 9.04 MiB (34%)
Source stream size : 9.04 MiB (34%)
Language : English
Encoded date : UTC 2012-07-05 14:07:46
Tagged date : UTC 2012-07-05 14:07:46
mdhd_Duration : 1414021
General
Complete name : C:\course\video\DB\1-Intro.mp4
Format : MPEG-4
Format profile : Base Media / Version 2
Codec ID : mp42
File size : 30.6 MiB
Duration : 23mn 26s
Overall bit rate : 183 Kbps
Encoded date : UTC 2012-07-02 05:30:50
Tagged date : UTC 2012-07-02 05:30:50
Video
ID : 1
Format : AVC
Format/Info : Advanced Video Codec
Format profile : High@L3.2
Format settings, CABAC : Yes
Format settings, ReFrames : 4 frames
Codec ID : avc1
Codec ID/Info : Advanced Video Coding
Duration : 23mn 26s
Source duration : 23mn 26s
Bit rate : 127 Kbps
Width : 1 280 pixels
Height : 800 pixels
Display aspect ratio : 16:10
Frame rate mode : Constant
Frame rate : 15.000 fps
Color space : YUV
Chroma subsampling : 4:2:0
Bit depth : 8 bits
Scan type : Progressive
Bits/(Pixel*Frame) : 0.008
Stream size : 21.3 MiB (70%)
Source stream size : 21.3 MiB (70%)
Language : English
Encoded date : UTC 2012-07-02 05:30:50
Tagged date : UTC 2012-07-02 05:30:50
Color range : Limited
Color primaries : BT.709
Transfer characteristics : BT.709
Matrix coefficients : BT.709
mdhd_Duration : 1406233
Audio
ID : 2
Format : AAC
Format/Info : Advanced Audio Codec
Format profile : LC
Codec ID : 40
Duration : 23mn 26s
Source duration : 23mn 26s
Bit rate mode : Constant
Bit rate : 53.6 Kbps
Channel(s) : 2 channels
Channel positions : Front: L R
Sampling rate : 44.1 KHz
Compression mode : Lossy
Stream size : 8.98 MiB (29%)
Source stream size : 8.98 MiB (29%)
Language : English
Encoded date : UTC 2012-07-02 05:30:50
Tagged date : UTC 2012-07-02 05:30:50
mdhd_Duration : 1405463
General
Complete name : C:\course\video\DB\6-SQL_theory.mp4
Format : MPEG-4
Format profile : Base Media / Version 2
Codec ID : mp42
File size : 38.0 MiB
Duration : 28mn 10s
Overall bit rate : 189 Kbps
Encoded date : UTC 2012-06-28 04:11:06
Tagged date : UTC 2012-06-28 04:11:06
Video
ID : 1
Format : AVC
Format/Info : Advanced Video Codec
Format profile : High@L3.2
Format settings, CABAC : Yes
Format settings, ReFrames : 4 frames
Format settings, GOP : M=1, N=75
Codec ID : avc1
Codec ID/Info : Advanced Video Coding
Duration : 28mn 10s
Source duration : 28mn 10s
Bit rate : 133 Kbps
Width : 1 280 pixels
Height : 800 pixels
Display aspect ratio : 16:10
Frame rate mode : Constant
Frame rate : 15.000 fps
Color space : YUV
Chroma subsampling : 4:2:0
Bit depth : 8 bits
Scan type : Progressive
Bits/(Pixel*Frame) : 0.009
Stream size : 26.8 MiB (70%)
Source stream size : 26.8 MiB (70%)
Language : English
Encoded date : UTC 2012-06-28 04:11:06
Tagged date : UTC 2012-06-28 04:11:06
Color range : Limited
Color primaries : BT.709
Transfer characteristics : BT.709
Matrix coefficients : BT.709
mdhd_Duration : 1690630
Audio
ID : 2
Format : AAC
Format/Info : Advanced Audio Codec
Format profile : LC
Codec ID : 40
Duration : 28mn 10s
Source duration : 28mn 10s
Bit rate mode : Constant
Bit rate : 53.6 Kbps
Channel(s) : 2 channels
Channel positions : Front: L R
Sampling rate : 44.1 KHz
Compression mode : Lossy
Stream size : 10.8 MiB (28%)
Source stream size : 10.8 MiB (28%)
Language : English
Encoded date : UTC 2012-06-28 04:11:06
Tagged date : UTC 2012-06-28 04:11:06
mdhd_Duration : 1689605
General
Complete name : C:\course\video\DB\5-TablesAnalyze1.mp4
Format : MPEG-4
Format profile : Base Media / Version 2
Codec ID : mp42
File size : 33.5 MiB
Duration : 26mn 4s
Overall bit rate : 180 Kbps
Encoded date : UTC 2012-06-27 15:54:33
Tagged date : UTC 2012-06-27 15:54:33
Video
ID : 1
Format : AVC
Format/Info : Advanced Video Codec
Format profile : High@L3.2
Format settings, CABAC : Yes
Format settings, ReFrames : 4 frames
Codec ID : avc1
Codec ID/Info : Advanced Video Coding
Duration : 26mn 4s
Source duration : 26mn 4s
Bit rate : 110 Kbps
Width : 1 280 pixels
Height : 800 pixels
Display aspect ratio : 16:10
Frame rate mode : Constant
Frame rate : 15.000 fps
Color space : YUV
Chroma subsampling : 4:2:0
Bit depth : 8 bits
Scan type : Progressive
Bits/(Pixel*Frame) : 0.007
Stream size : 20.6 MiB (61%)
Source stream size : 23.2 MiB (69%)
Language : English
Encoded date : UTC 2012-06-27 15:54:33
Tagged date : UTC 2012-06-27 15:54:33
Color range : Limited
Color primaries : BT.709
Transfer characteristics : BT.709
Matrix coefficients : BT.709
mdhd_Duration : 1564194
Audio
ID : 2
Format : AAC
Format/Info : Advanced Audio Codec
Format profile : LC
Codec ID : 40
Duration : 26mn 4s
Source duration : 26mn 4s
Bit rate mode : Constant
Bit rate : 53.6 Kbps
Channel(s) : 2 channels
Channel positions : Front: L R
Sampling rate : 44.1 KHz
Compression mode : Lossy
Stream size : 9.99 MiB (30%)
Source stream size : 9.99 MiB (30%)
Language : English
Encoded date : UTC 2012-06-27 15:54:33
Tagged date : UTC 2012-06-27 15:54:33
mdhd_Duration : 1563294
General
Complete name : C:\course\video\DB\3-SQLiteCreateTables.mp4
Format : MPEG-4
Format profile : Base Media / Version 2
Codec ID : mp42
File size : 29.7 MiB
Duration : 25mn 43s
Overall bit rate : 161 Kbps
Encoded date : UTC 2012-06-27 13:31:31
Tagged date : UTC 2012-06-27 13:31:31
Video
ID : 1
Format : AVC
Format/Info : Advanced Video Codec
Format profile : High@L3.2
Format settings, CABAC : Yes
Format settings, ReFrames : 4 frames
Codec ID : avc1
Codec ID/Info : Advanced Video Coding
Duration : 25mn 43s
Source duration : 25mn 43s
Bit rate : 92.6 Kbps
Width : 1 280 pixels
Height : 800 pixels
Display aspect ratio : 16:10
Frame rate mode : Constant
Frame rate : 15.000 fps
Color space : YUV
Chroma subsampling : 4:2:0
Bit depth : 8 bits
Scan type : Progressive
Bits/(Pixel*Frame) : 0.006
Stream size : 17.0 MiB (57%)
Source stream size : 19.5 MiB (66%)
Language : English
Encoded date : UTC 2012-06-27 13:31:31
Tagged date : UTC 2012-06-27 13:31:31
Color range : Limited
Color primaries : BT.709
Transfer characteristics : BT.709
Matrix coefficients : BT.709
mdhd_Duration : 1542866
Audio
ID : 2
Format : AAC
Format/Info : Advanced Audio Codec
Format profile : LC
Codec ID : 40
Duration : 25mn 43s
Source duration : 25mn 43s
Bit rate mode : Constant
Bit rate : 53.6 Kbps
Channel(s) : 2 channels
Channel positions : Front: L R
Sampling rate : 44.1 KHz
Compression mode : Lossy
Stream size : 9.86 MiB (33%)
Source stream size : 9.86 MiB (33%)
Language : English
Encoded date : UTC 2012-06-27 13:31:31
Tagged date : UTC 2012-06-27 13:31:31
mdhd_Duration : 1541979
General
Complete name : C:\course\video\DB\2-SQLite.mp4
Format : MPEG-4
Format profile : Base Media / Version 2
Codec ID : mp42
File size : 23.1 MiB
Duration : 12mn 17s
Overall bit rate : 263 Kbps
Encoded date : UTC 2012-06-27 11:47:42
Tagged date : UTC 2012-06-27 11:47:42
Video
ID : 1
Format : AVC
Format/Info : Advanced Video Codec
Format profile : High@L3.2
Format settings, CABAC : Yes
Format settings, ReFrames : 4 frames
Codec ID : avc1
Codec ID/Info : Advanced Video Coding
Duration : 12mn 17s
Source duration : 12mn 17s
Bit rate : 190 Kbps
Width : 1 280 pixels
Height : 800 pixels
Display aspect ratio : 16:10
Frame rate mode : Constant
Frame rate : 15.000 fps
Color space : YUV
Chroma subsampling : 4:2:0
Bit depth : 8 bits
Scan type : Progressive
Bits/(Pixel*Frame) : 0.012
Stream size : 16.7 MiB (72%)
Source stream size : 18.2 MiB (79%)
Language : English
Encoded date : UTC 2012-06-27 11:47:42
Tagged date : UTC 2012-06-27 11:47:42
Color range : Limited
Color primaries : BT.709
Transfer characteristics : BT.709
Matrix coefficients : BT.709
mdhd_Duration : 737463
Audio
ID : 2
Format : AAC
Format/Info : Advanced Audio Codec
Format profile : LC
Codec ID : 40
Duration : 12mn 17s
Source duration : 12mn 17s
Bit rate mode : Constant
Bit rate : 53.6 Kbps
Channel(s) : 2 channels
Channel positions : Front: L R
Sampling rate : 44.1 KHz
Compression mode : Lossy
Stream size : 4.71 MiB (20%)
Source stream size : 4.71 MiB (20%)
Language : English
Encoded date : UTC 2012-06-27 11:47:42
Tagged date : UTC 2012-06-27 11:47:42
mdhd_Duration : 737309
General
Complete name : C:\course\video\End\Conclusion.mp4
Format : MPEG-4
Format profile : Base Media / Version 2
Codec ID : mp42
File size : 2.73 MiB
Duration : 1mn 45s
Overall bit rate mode : Variable
Overall bit rate : 217 Kbps
Encoded date : UTC 2013-04-05 07:37:20
Tagged date : UTC 2013-04-05 07:37:20
Video
ID : 1
Format : AVC
Format/Info : Advanced Video Codec
Format profile : High@L3.1
Format settings, CABAC : Yes
Format settings, ReFrames : 3 frames
Codec ID : avc1
Codec ID/Info : Advanced Video Coding
Duration : 1mn 45s
Source duration : 1mn 45s
Bit rate : 88.0 Kbps
Width : 1 280 pixels
Height : 720 pixels
Display aspect ratio : 16:9
Frame rate mode : Variable
Frame rate : 30.000 fps
Minimum frame rate : 30.000 fps
Maximum frame rate : 30.030 fps
Standard : NTSC
Color space : YUV
Chroma subsampling : 4:2:0
Bit depth : 8 bits
Scan type : Progressive
Bits/(Pixel*Frame) : 0.003
Stream size : 1.11 MiB (41%)
Source stream size : 1.11 MiB (41%)
Language : English
Encoded date : UTC 2013-04-05 07:37:20
Tagged date : UTC 2013-04-05 07:37:20
Color range : Limited
Color primaries : BT.709
Transfer characteristics : BT.709
Matrix coefficients : BT.709
mdhd_Duration : 105833
Audio
ID : 2
Format : AAC
Format/Info : Advanced Audio Codec
Format profile : LC
Codec ID : 40
Duration : 1mn 45s
Source duration : 1mn 45s
Bit rate mode : Variable
Bit rate : 126 Kbps
Maximum bit rate : 163 Kbps
Channel(s) : 2 channels
Channel positions : Front: L R
Sampling rate : 44.1 KHz
Compression mode : Lossy
Stream size : 1.59 MiB (58%)
Source stream size : 1.59 MiB (58%)
Language : English
Encoded date : UTC 2013-04-05 07:37:20
Tagged date : UTC 2013-04-05 07:37:20
mdhd_Duration : 105860

Скриншоты


_________________
Показать сообщения:    

Текущее время: Сегодня 02:09

Часовой пояс: GMT



Вы не можете начинать темы
Вы не можете отвечать на сообщения
Вы не можете редактировать свои сообщения
Вы не можете удалять свои сообщения
Вы не можете голосовать в опросах
Вы не можете прикреплять файлы к сообщениям
Вы не можете скачивать файлы