Важное объявление!
У Нас Все раздачи мультитрекерные, при нуле пиров в релизах, можете смело вставать на закачку!
 
Автор Сообщение

HUNTER

Стаж:
4 года 6 месяцев
Сообщений:
61029

Репутация: 101

[+] [-]
Вне форума [Профиль] [ЛС]

Шаблоны проектирования Java
Год выпуска: 2015
Производитель: JavaBegin
Сайт производителя: javabegin.ru/products/patterns
Продолжительность: 1:30
Тип раздаваемого материала: Видеоклипы
Язык: Русский
Описание: Полностью практический видеокурс, где вы научитесь профессионально программировать в стиле ООП, применять шаблоны проектирования и делать анализ производительности.
Файлы примеров: присутствуют
Формат видео: MP4
Видео: AVC, 1824x1020/1828x1020/1840x1020, 16:9, 30fps, 85.6kbps
Аудио: AAC, 44.1kHz, 93.6kbps, stereo

MediaInfo

General
Complete name : C:\Intro.mp4
Format : MPEG-4
Format profile : Base Media / Version 2
Codec ID : mp42
File size : 9.09 MiB
Duration : 7mn 42s
Overall bit rate mode : Variable
Overall bit rate : 165 Kbps
Encoded date : UTC 2013-10-27 11:50:02
Tagged date : UTC 2013-10-27 11:50:02
Video
ID : 1
Format : AVC
Format/Info : Advanced Video Codec
Format profile : Baseline@L4
Format settings, CABAC : No
Format settings, ReFrames : 3 frames
Codec ID : avc1
Codec ID/Info : Advanced Video Coding
Duration : 7mn 42s
Source duration : 7mn 42s
Bit rate : 68.4 Kbps
Width : 1 824 pixels
Height : 1 020 pixels
Display aspect ratio : 16:9
Frame rate mode : Variable
Frame rate : 30.000 fps
Minimum frame rate : 30.000 fps
Maximum frame rate : 30.030 fps
Standard : NTSC
Color space : YUV
Chroma subsampling : 4:2:0
Bit depth : 8 bits
Scan type : Progressive
Bits/(Pixel*Frame) : 0.001
Stream size : 3.77 MiB (41%)
Source stream size : 3.77 MiB (41%)
Language : English
Encoded date : UTC 2013-10-27 11:50:02
Tagged date : UTC 2013-10-27 11:50:02
Color range : Limited
mdhd_Duration : 462600
Audio
ID : 2
Format : AAC
Format/Info : Advanced Audio Codec
Format profile : LC
Codec ID : 40
Duration : 7mn 42s
Source duration : 7mn 42s
Bit rate mode : Variable
Bit rate : 93.6 Kbps
Maximum bit rate : 158 Kbps
Channel(s) : 2 channels
Channel positions : Front: L R
Sampling rate : 44.1 KHz
Compression mode : Lossy
Stream size : 5.16 MiB (57%)
Source stream size : 5.16 MiB (57%)
Language : English
Encoded date : UTC 2013-10-27 11:50:02
Tagged date : UTC 2013-10-27 11:50:02
mdhd_Duration : 462634
General
Complete name : C:\1-Singleton.mp4
Format : MPEG-4
Format profile : Base Media / Version 2
Codec ID : mp42
File size : 13.2 MiB
Duration : 10mn 46s
Overall bit rate mode : Variable
Overall bit rate : 171 Kbps
Encoded date : UTC 2013-10-27 10:41:39
Tagged date : UTC 2013-10-27 10:41:39
Video
ID : 1
Format : AVC
Format/Info : Advanced Video Codec
Format profile : Baseline@L4
Format settings, CABAC : No
Format settings, ReFrames : 3 frames
Codec ID : avc1
Codec ID/Info : Advanced Video Coding
Duration : 10mn 46s
Source duration : 10mn 46s
Bit rate : 74.5 Kbps
Width : 1 824 pixels
Height : 1 020 pixels
Display aspect ratio : 16:9
Frame rate mode : Variable
Frame rate : 30.000 fps
Minimum frame rate : 30.000 fps
Maximum frame rate : 30.030 fps
Standard : NTSC
Color space : YUV
Chroma subsampling : 4:2:0
Bit depth : 8 bits
Scan type : Progressive
Bits/(Pixel*Frame) : 0.001
Stream size : 5.74 MiB (44%)
Source stream size : 5.74 MiB (44%)
Language : English
Encoded date : UTC 2013-10-27 10:41:39
Tagged date : UTC 2013-10-27 10:41:39
Color range : Limited
mdhd_Duration : 646500
Audio
ID : 2
Format : AAC
Format/Info : Advanced Audio Codec
Format profile : LC
Codec ID : 40
Duration : 10mn 46s
Source duration : 10mn 46s
Bit rate mode : Variable
Bit rate : 93.6 Kbps
Maximum bit rate : 124 Kbps
Channel(s) : 2 channels
Channel positions : Front: L R
Sampling rate : 44.1 KHz
Compression mode : Lossy
Stream size : 7.22 MiB (55%)
Source stream size : 7.22 MiB (55%)
Language : English
Encoded date : UTC 2013-10-27 10:41:39
Tagged date : UTC 2013-10-27 10:41:39
mdhd_Duration : 646536
General
Complete name : C:\2-FactoryMethod.mp4
Format : MPEG-4
Format profile : Base Media / Version 2
Codec ID : mp42
File size : 12.8 MiB
Duration : 10mn 31s
Overall bit rate mode : Variable
Overall bit rate : 170 Kbps
Encoded date : UTC 2013-10-27 10:54:28
Tagged date : UTC 2013-10-27 10:54:28
Video
ID : 1
Format : AVC
Format/Info : Advanced Video Codec
Format profile : Baseline@L4
Format settings, CABAC : No
Format settings, ReFrames : 3 frames
Codec ID : avc1
Codec ID/Info : Advanced Video Coding
Duration : 10mn 31s
Source duration : 10mn 31s
Bit rate : 73.9 Kbps
Width : 1 824 pixels
Height : 1 020 pixels
Display aspect ratio : 16:9
Frame rate mode : Variable
Frame rate : 30.000 fps
Minimum frame rate : 30.000 fps
Maximum frame rate : 30.030 fps
Standard : NTSC
Color space : YUV
Chroma subsampling : 4:2:0
Bit depth : 8 bits
Scan type : Progressive
Bits/(Pixel*Frame) : 0.001
Stream size : 5.57 MiB (43%)
Source stream size : 5.57 MiB (43%)
Language : English
Encoded date : UTC 2013-10-27 10:54:29
Tagged date : UTC 2013-10-27 10:54:29
Color range : Limited
mdhd_Duration : 631600
Audio
ID : 2
Format : AAC
Format/Info : Advanced Audio Codec
Format profile : LC
Codec ID : 40
Duration : 10mn 31s
Source duration : 10mn 31s
Bit rate mode : Variable
Bit rate : 93.6 Kbps
Maximum bit rate : 123 Kbps
Channel(s) : 2 channels
Channel positions : Front: L R
Sampling rate : 44.1 KHz
Compression mode : Lossy
Stream size : 7.05 MiB (55%)
Source stream size : 7.05 MiB (55%)
Language : English
Encoded date : UTC 2013-10-27 10:54:29
Tagged date : UTC 2013-10-27 10:54:29
mdhd_Duration : 631629
General
Complete name : C:\3-AbstractFactory.mp4
Format : MPEG-4
Format profile : Base Media / Version 2
Codec ID : mp42
File size : 17.9 MiB
Duration : 13mn 46s
Overall bit rate mode : Variable
Overall bit rate : 182 Kbps
Encoded date : UTC 2013-10-27 11:07:12
Tagged date : UTC 2013-10-27 11:07:12
Video
ID : 1
Format : AVC
Format/Info : Advanced Video Codec
Format profile : Baseline@L4
Format settings, CABAC : No
Format settings, ReFrames : 3 frames
Codec ID : avc1
Codec ID/Info : Advanced Video Coding
Duration : 13mn 46s
Source duration : 13mn 46s
Bit rate : 85.6 Kbps
Width : 1 824 pixels
Height : 1 020 pixels
Display aspect ratio : 16:9
Frame rate mode : Variable
Frame rate : 30.000 fps
Minimum frame rate : 30.000 fps
Maximum frame rate : 30.030 fps
Standard : NTSC
Color space : YUV
Chroma subsampling : 4:2:0
Bit depth : 8 bits
Scan type : Progressive
Bits/(Pixel*Frame) : 0.002
Stream size : 8.43 MiB (47%)
Source stream size : 8.43 MiB (47%)
Language : English
Encoded date : UTC 2013-10-27 11:07:12
Tagged date : UTC 2013-10-27 11:07:12
Color range : Limited
mdhd_Duration : 826800
Audio
ID : 2
Format : AAC
Format/Info : Advanced Audio Codec
Format profile : LC
Codec ID : 40
Duration : 13mn 46s
Source duration : 13mn 46s
Bit rate mode : Variable
Bit rate : 93.6 Kbps
Maximum bit rate : 126 Kbps
Channel(s) : 2 channels
Channel positions : Front: L R
Sampling rate : 44.1 KHz
Compression mode : Lossy
Stream size : 9.23 MiB (51%)
Source stream size : 9.23 MiB (51%)
Language : English
Encoded date : UTC 2013-10-27 11:07:12
Tagged date : UTC 2013-10-27 11:07:12
mdhd_Duration : 826839
General
Complete name : C:\4-Decorator.mp4
Format : MPEG-4
Format profile : Base Media / Version 2
Codec ID : mp42
File size : 21.6 MiB
Duration : 15mn 52s
Overall bit rate mode : Variable
Overall bit rate : 191 Kbps
Encoded date : UTC 2013-10-27 11:23:46
Tagged date : UTC 2013-10-27 11:23:46
Video
ID : 1
Format : AVC
Format/Info : Advanced Video Codec
Format profile : Baseline@L4
Format settings, CABAC : No
Format settings, ReFrames : 3 frames
Codec ID : avc1
Codec ID/Info : Advanced Video Coding
Duration : 15mn 52s
Source duration : 15mn 52s
Bit rate : 94.2 Kbps
Width : 1 824 pixels
Height : 1 020 pixels
Display aspect ratio : 16:9
Frame rate mode : Variable
Frame rate : 30.000 fps
Minimum frame rate : 30.000 fps
Maximum frame rate : 30.030 fps
Standard : NTSC
Color space : YUV
Chroma subsampling : 4:2:0
Bit depth : 8 bits
Scan type : Progressive
Bits/(Pixel*Frame) : 0.002
Stream size : 10.7 MiB (49%)
Source stream size : 10.7 MiB (49%)
Language : English
Encoded date : UTC 2013-10-27 11:23:46
Tagged date : UTC 2013-10-27 11:23:46
Color range : Limited
mdhd_Duration : 952367
Audio
ID : 2
Format : AAC
Format/Info : Advanced Audio Codec
Format profile : LC
Codec ID : 40
Duration : 15mn 52s
Source duration : 15mn 52s
Bit rate mode : Variable
Bit rate : 93.6 Kbps
Maximum bit rate : 131 Kbps
Channel(s) : 2 channels
Channel positions : Front: L R
Sampling rate : 44.1 KHz
Compression mode : Lossy
Stream size : 10.6 MiB (49%)
Source stream size : 10.6 MiB (49%)
Language : English
Encoded date : UTC 2013-10-27 11:23:46
Tagged date : UTC 2013-10-27 11:23:46
mdhd_Duration : 952413
General
Complete name : C:\5-Adapter.mp4
Format : MPEG-4
Format profile : Base Media / Version 2
Codec ID : mp42
File size : 7.25 MiB
Duration : 5mn 49s
Overall bit rate mode : Variable
Overall bit rate : 174 Kbps
Encoded date : UTC 2013-10-27 11:42:49
Tagged date : UTC 2013-10-27 11:42:49
Video
ID : 1
Format : AVC
Format/Info : Advanced Video Codec
Format profile : Baseline@L4
Format settings, CABAC : No
Format settings, ReFrames : 3 frames
Codec ID : avc1
Codec ID/Info : Advanced Video Coding
Duration : 5mn 49s
Source duration : 5mn 49s
Bit rate : 77.5 Kbps
Width : 1 828 pixels
Height : 1 016 pixels
Display aspect ratio : 16:9
Frame rate mode : Variable
Frame rate : 30.000 fps
Minimum frame rate : 30.000 fps
Maximum frame rate : 30.030 fps
Standard : NTSC
Color space : YUV
Chroma subsampling : 4:2:0
Bit depth : 8 bits
Scan type : Progressive
Bits/(Pixel*Frame) : 0.001
Stream size : 3.23 MiB (45%)
Source stream size : 3.23 MiB (45%)
Language : English
Encoded date : UTC 2013-10-27 11:42:52
Tagged date : UTC 2013-10-27 11:42:52
Color range : Limited
mdhd_Duration : 349733
Audio
ID : 2
Format : AAC
Format/Info : Advanced Audio Codec
Format profile : LC
Codec ID : 40
Duration : 5mn 49s
Source duration : 5mn 49s
Bit rate mode : Variable
Bit rate : 93.6 Kbps
Maximum bit rate : 122 Kbps
Channel(s) : 2 channels
Channel positions : Front: L R
Sampling rate : 44.1 KHz
Compression mode : Lossy
Stream size : 3.90 MiB (54%)
Source stream size : 3.90 MiB (54%)
Language : English
Encoded date : UTC 2013-10-27 11:42:52
Tagged date : UTC 2013-10-27 11:42:52
mdhd_Duration : 349762
General
Complete name : C:\6-Facade.mp4
Format : MPEG-4
Format profile : Base Media / Version 2
Codec ID : mp42
File size : 5.96 MiB
Duration : 4mn 44s
Overall bit rate mode : Variable
Overall bit rate : 176 Kbps
Encoded date : UTC 2013-12-11 14:35:45
Tagged date : UTC 2013-12-11 14:35:45
Video
ID : 1
Format : AVC
Format/Info : Advanced Video Codec
Format profile : Baseline@L4
Format settings, CABAC : No
Format settings, ReFrames : 3 frames
Codec ID : avc1
Codec ID/Info : Advanced Video Coding
Duration : 4mn 44s
Source duration : 4mn 44s
Bit rate : 79.3 Kbps
Width : 1 824 pixels
Height : 1 020 pixels
Display aspect ratio : 16:9
Frame rate mode : Variable
Frame rate : 30.000 fps
Minimum frame rate : 30.000 fps
Maximum frame rate : 30.030 fps
Standard : NTSC
Color space : YUV
Chroma subsampling : 4:2:0
Bit depth : 8 bits
Scan type : Progressive
Bits/(Pixel*Frame) : 0.001
Stream size : 2.69 MiB (45%)
Source stream size : 2.69 MiB (45%)
Language : English
Encoded date : UTC 2013-12-11 14:35:46
Tagged date : UTC 2013-12-11 14:35:46
Color range : Limited
mdhd_Duration : 284300
Audio
ID : 2
Format : AAC
Format/Info : Advanced Audio Codec
Format profile : LC
Codec ID : 40
Duration : 4mn 44s
Source duration : 4mn 44s
Bit rate mode : Variable
Bit rate : 93.6 Kbps
Maximum bit rate : 124 Kbps
Channel(s) : 2 channels
Channel positions : Front: L R
Sampling rate : 44.1 KHz
Compression mode : Lossy
Stream size : 3.17 MiB (53%)
Source stream size : 3.17 MiB (53%)
Language : English
Encoded date : UTC 2013-12-11 14:35:46
Tagged date : UTC 2013-12-11 14:35:46
mdhd_Duration : 284328
General
Complete name : C:\7-Observer.mp4
Format : MPEG-4
Format profile : Base Media / Version 2
Codec ID : mp42
File size : 10.8 MiB
Duration : 8mn 14s
Overall bit rate mode : Variable
Overall bit rate : 183 Kbps
Encoded date : UTC 2013-12-04 15:27:08
Tagged date : UTC 2013-12-04 15:27:08
Video
ID : 1
Format : AVC
Format/Info : Advanced Video Codec
Format profile : Baseline@L4
Format settings, CABAC : No
Format settings, ReFrames : 3 frames
Codec ID : avc1
Codec ID/Info : Advanced Video Coding
Duration : 8mn 14s
Source duration : 8mn 14s
Bit rate : 86.2 Kbps
Width : 1 840 pixels
Height : 1 020 pixels
Display aspect ratio : 16:9
Frame rate mode : Variable
Frame rate : 30.000 fps
Minimum frame rate : 30.000 fps
Maximum frame rate : 30.030 fps
Standard : NTSC
Color space : YUV
Chroma subsampling : 4:2:0
Bit depth : 8 bits
Scan type : Progressive
Bits/(Pixel*Frame) : 0.002
Stream size : 5.08 MiB (47%)
Source stream size : 5.08 MiB (47%)
Language : English
Encoded date : UTC 2013-12-04 15:27:08
Tagged date : UTC 2013-12-04 15:27:08
Color range : Limited
mdhd_Duration : 494833
Audio
ID : 2
Format : AAC
Format/Info : Advanced Audio Codec
Format profile : LC
Codec ID : 40
Duration : 8mn 14s
Source duration : 8mn 14s
Bit rate mode : Variable
Bit rate : 93.6 Kbps
Maximum bit rate : 125 Kbps
Channel(s) : 2 channels
Channel positions : Front: L R
Sampling rate : 44.1 KHz
Compression mode : Lossy
Stream size : 5.52 MiB (51%)
Source stream size : 5.52 MiB (51%)
Language : English
Encoded date : UTC 2013-12-04 15:27:08
Tagged date : UTC 2013-12-04 15:27:08
mdhd_Duration : 494864
General
Complete name : C:\8-State.mp4
Format : MPEG-4
Format profile : Base Media / Version 2
Codec ID : mp42
File size : 6.46 MiB
Duration : 5mn 5s
Overall bit rate mode : Variable
Overall bit rate : 177 Kbps
Encoded date : UTC 2013-12-11 15:23:04
Tagged date : UTC 2013-12-11 15:23:04
Video
ID : 1
Format : AVC
Format/Info : Advanced Video Codec
Format profile : Baseline@L4
Format settings, CABAC : No
Format settings, ReFrames : 3 frames
Codec ID : avc1
Codec ID/Info : Advanced Video Coding
Duration : 5mn 5s
Source duration : 5mn 5s
Bit rate : 80.8 Kbps
Width : 1 828 pixels
Height : 1 020 pixels
Display aspect ratio : 16:9
Frame rate mode : Variable
Frame rate : 30.000 fps
Minimum frame rate : 30.000 fps
Maximum frame rate : 30.030 fps
Standard : NTSC
Color space : YUV
Chroma subsampling : 4:2:0
Bit depth : 8 bits
Scan type : Progressive
Bits/(Pixel*Frame) : 0.001
Stream size : 2.94 MiB (46%)
Source stream size : 2.94 MiB (46%)
Language : English
Encoded date : UTC 2013-12-11 15:23:04
Tagged date : UTC 2013-12-11 15:23:04
Color range : Limited
mdhd_Duration : 305700
Audio
ID : 2
Format : AAC
Format/Info : Advanced Audio Codec
Format profile : LC
Codec ID : 40
Duration : 5mn 5s
Source duration : 5mn 5s
Bit rate mode : Variable
Bit rate : 93.6 Kbps
Maximum bit rate : 116 Kbps
Channel(s) : 2 channels
Channel positions : Front: L R
Sampling rate : 44.1 KHz
Compression mode : Lossy
Stream size : 3.41 MiB (53%)
Source stream size : 3.41 MiB (53%)
Language : English
Encoded date : UTC 2013-12-11 15:23:04
Tagged date : UTC 2013-12-11 15:23:04
mdhd_Duration : 305737
General
Complete name : C:\9-Strategy.mp4
Format : MPEG-4
Format profile : Base Media / Version 2
Codec ID : mp42
File size : 9.89 MiB
Duration : 8mn 14s
Overall bit rate mode : Variable
Overall bit rate : 168 Kbps
Encoded date : UTC 2013-12-11 17:37:36
Tagged date : UTC 2013-12-11 17:37:36
Video
ID : 1
Format : AVC
Format/Info : Advanced Video Codec
Format profile : Baseline@L4
Format settings, CABAC : No
Format settings, ReFrames : 3 frames
Codec ID : avc1
Codec ID/Info : Advanced Video Coding
Duration : 8mn 14s
Source duration : 8mn 14s
Bit rate : 71.4 Kbps
Width : 1 816 pixels
Height : 1 020 pixels
Display aspect ratio : 16:9
Frame rate mode : Variable
Frame rate : 30.000 fps
Minimum frame rate : 30.000 fps
Maximum frame rate : 30.030 fps
Standard : NTSC
Color space : YUV
Chroma subsampling : 4:2:0
Bit depth : 8 bits
Scan type : Progressive
Bits/(Pixel*Frame) : 0.001
Stream size : 4.21 MiB (43%)
Source stream size : 4.21 MiB (43%)
Language : English
Encoded date : UTC 2013-12-11 17:37:36
Tagged date : UTC 2013-12-11 17:37:36
Color range : Limited
mdhd_Duration : 494367
Audio
ID : 2
Format : AAC
Format/Info : Advanced Audio Codec
Format profile : LC
Codec ID : 40
Duration : 8mn 14s
Source duration : 8mn 14s
Bit rate mode : Variable
Bit rate : 93.6 Kbps
Maximum bit rate : 122 Kbps
Channel(s) : 2 channels
Channel positions : Front: L R
Sampling rate : 44.1 KHz
Compression mode : Lossy
Stream size : 5.52 MiB (56%)
Source stream size : 5.52 MiB (56%)
Language : English
Encoded date : UTC 2013-12-11 17:37:36
Tagged date : UTC 2013-12-11 17:37:36
mdhd_Duration : 494399

Скриншоты


_________________
Показать сообщения:    

Текущее время: Сегодня 01:52

Часовой пояс: GMT



Вы не можете начинать темы
Вы не можете отвечать на сообщения
Вы не можете редактировать свои сообщения
Вы не можете удалять свои сообщения
Вы не можете голосовать в опросах
Вы не можете прикреплять файлы к сообщениям
Вы не можете скачивать файлы
Наши партнеры: интернет магазин Ивановского трикотажа textilla.ru